Скачать через торрент музыку Chickenfoot - I+III+LV бесплатно без регистрации torrent

Если у вас наблюдаются проблемы со скриншотами, переходом по ссылками, скачиванием торрентов - проблемы в блокировщике рекламы AdBlock. #хорошегоДня!


Статистика раздачи
Размер:  1.35 GB   |    Зарегистрирован:  4 года 9 месяцев   |    .torrent скачан:  45 раз   |   
Раздают:  1  
   
Загрузка...
 
Автор Сообщение

Galfimbul

avatar Galfimbul


Chickenfoot / I+III+LV (Limited Edition Box Set)

Жанр: Hard Rock, Blues Rock, Heavy Metal
Страна-производитель диска: EU, Germany
Год издания: 2012
Издатель (лейбл): Edel Germany Gmbh. earMUSIC
Номер по каталогу: 0208371ERE
Страна: USA
Аудиокодек: FLAC (*.flac)
Тип рипа: image+.cue
Битрейт аудио: lossless
Продолжительность: 02:44:18
Источник (релизер): Собственный
Наличие сканов в содержимом раздачи: да (PNG, 300dpi, 197Mb)
Amazon | Wikipedia | Official page Studio Albums
Об альбоме: Первый студийный альбом супергруппы Chickenfoot.

01. Avenida Revolucion - 5:57
02. Soap on a Rope - 5:33
03. Sexy Little Thing - 4:15
04. Oh Yeah - 4:54
05. Runnin' Out - 3:53
06. Get It Up - 4:42
07. Down the Drain - 6:18
08. My Kinda Girl - 4:35
09. Learning to Fall - 5:13
10. Turnin' Left - 5:49
11. Future in the Past - 6:40Bonus Tracks:
12. Bitten by the Wolf - 4:24
Exact Audio Copy V1.0 beta 3 from 29. August 2011

EAC extraction logfile from 28. December 2012, 20:41

Chickenfoot / Chickenfoot

Used drive : ATAPI iHAS124 B Adapter: 2 ID: 0

Read mode : SecureUtilize accurate stream : YesDefeat audio cache : YesMake use of C2 pointers : No

Read offset correction : 6Overread into Lead-In and Lead-Out : NoFill up missing offset samples with silence : YesDelete leading and trailing silent blocks : NoNull samples used in CRC calculations : YesUsed interface : Native Win32 interface for Win NT & 2000

Used output format : User Defined EncoderSelected bitrate : 1024 kBit/sQuality : HighAdd ID3 tag : NoCommand line compressor : C:\Program Files (x86)\Exact Audio Copy\FLAC\FLAC.EXEAdditional command line options : -8 -V -T "ARTIST=%artist%" -T "TITLE=%title%" -T "ALBUM=%albumtitle%" -T "DATE=%year%" -T "TRACKNUMBER=%tracknr%" -T "GENRE=%genre%" -T "PERFORMER=%albuminterpret%" -T "COMPOSER=%composer%" %haslyrics%--tag-from-file=LYRICS="%lyricsfile%"%haslyrics% -T "ALBUMARTIST=%albumartist%" -T "DISCNUMBER=%cdnumber%" -T "TOTALDISCS=%totalcds%" -T "TOTALTRACKS=%numtracks%" -T "COMMENT=%comment%" %source% -o %dest%

TOC of the extracted CD

Track | Start | Length | Start sector | End sector --------------------------------------------------------- 1 | 0:00.00 | 5:56.70 | 0 | 26769 2 | 5:56.70 | 5:32.70 | 26770 | 51739 3 | 11:29.65 | 4:14.55 | 51740 | 70844 4 | 15:44.45 | 4:54.24 | 70845 | 92918 5 | 20:38.69 | 3:52.63 | 92919 | 110381 6 | 24:31.57 | 4:41.69 | 110382 | 131525 7 | 29:13.51 | 6:17.39 | 131526 | 159839 8 | 35:31.15 | 4:34.62 | 159840 | 180451 9 | 40:06.02 | 5:13.36 | 180452 | 203962 10 | 45:19.38 | 5:48.47 | 203963 | 230109 11 | 51:08.10 | 6:39.46 | 230110 | 260080 12 | 57:47.56 | 4:24.35 | 260081 | 279915

Range status and errors

Selected range

Filename G:\CD\Chickenfoot - Chickenfoot.wav

Peak level 100.0 % Extraction speed 6.2 X Range quality 100.0 % Test CRC 3134BF28 Copy CRC 3134BF28 Copy OK

No errors occurred

AccurateRip summary

Track 1 not present in databaseTrack 2 not present in databaseTrack 3 not present in databaseTrack 4 not present in databaseTrack 5 not present in databaseTrack 6 not present in databaseTrack 7 not present in databaseTrack 8 not present in databaseTrack 9 not present in databaseTrack 10 not present in databaseTrack 11 not present in databaseTrack 12 not present in database

None of the tracks are present in the AccurateRip database

End of status report

==== Log checksum C2930D9BEDF15D29E789AA77A910DC4792F589F888AAEF4DFD2C687DC0867BDC ====
Об альбоме: Второй студийный альбом супергруппы Chickenfoot.

01. Last Temptation - 4:02
02. Alright Alright - 4:39
03. Different Devil - 4:25
04. Up Next - 4:33
05. Lighten Up - 5:12
06. Come Closer - 4:08
07. Three And A Half Letters - 4:08
08. Big Foot - 3:50
09. Dubai Blues - 5:03
10. Something Going Wrong - 5:16
Exact Audio Copy V1.0 beta 3 from 29. August 2011

EAC extraction logfile from 28. December 2012, 21:52

Chickenfoot / III

Used drive : Optiarc BD RW BD-5300S Adapter: 0 ID: 1

Read mode : SecureUtilize accurate stream : YesDefeat audio cache : YesMake use of C2 pointers : No

Read offset correction : 6Overread into Lead-In and Lead-Out : NoFill up missing offset samples with silence : YesDelete leading and trailing silent blocks : NoNull samples used in CRC calculations : YesUsed interface : Native Win32 interface for Win NT & 2000

Used output format : User Defined EncoderSelected bitrate : 1024 kBit/sQuality : HighAdd ID3 tag : NoCommand line compressor : C:\Program Files (x86)\Exact Audio Copy\FLAC\FLAC.EXEAdditional command line options : -8 -V -T "ARTIST=%artist%" -T "TITLE=%title%" -T "ALBUM=%albumtitle%" -T "DATE=%year%" -T "TRACKNUMBER=%tracknr%" -T "GENRE=%genre%" -T "PERFORMER=%albuminterpret%" -T "COMPOSER=%composer%" %haslyrics%--tag-from-file=LYRICS="%lyricsfile%"%haslyrics% -T "ALBUMARTIST=%albumartist%" -T "DISCNUMBER=%cdnumber%" -T "TOTALDISCS=%totalcds%" -T "TOTALTRACKS=%numtracks%" -T "COMMENT=%comment%" %source% -o %dest%

TOC of the extracted CD

Track | Start | Length | Start sector | End sector --------------------------------------------------------- 1 | 0:00.00 | 4:02.07 | 0 | 18156 2 | 4:02.07 | 4:39.12 | 18157 | 39093 3 | 8:41.19 | 4:24.39 | 39094 | 58932 4 | 13:05.58 | 4:33.01 | 58933 | 79408 5 | 17:38.59 | 5:12.26 | 79409 | 102834 6 | 22:51.10 | 4:08.19 | 102835 | 121453 7 | 26:59.29 | 4:07.68 | 121454 | 140046 8 | 31:07.22 | 3:49.38 | 140047 | 157259 9 | 34:56.60 | 5:02.43 | 157260 | 179952 10 | 39:59.28 | 5:15.50 | 179953 | 203627

Range status and errors

Selected range

Filename G:\CD\Chickenfoot - 3.wav

Peak level 99.8 % Extraction speed 3.3 X Range quality 100.0 % Test CRC 8EB5AB38 Copy CRC 8EB5AB38 Copy OK

No errors occurred

AccurateRip summary

Track 1 accurately ripped (confidence 12) [7C7C3B45] (AR v2)Track 2 accurately ripped (confidence 12) [4807EE9F] (AR v2)Track 3 accurately ripped (confidence 11) [E53F0F61] (AR v2)Track 4 accurately ripped (confidence 12) [8E45C053] (AR v2)Track 5 accurately ripped (confidence 12) [20700A13] (AR v2)Track 6 accurately ripped (confidence 11) [0EA595F9] (AR v2)Track 7 accurately ripped (confidence 12) [E574EE8F] (AR v2)Track 8 accurately ripped (confidence 12) [46DFB347] (AR v2)Track 9 accurately ripped (confidence 12) [D97256E2] (AR v2)Track 10 accurately ripped (confidence 12) [57D49381] (AR v2)

All tracks accurately ripped

End of status report

==== Log checksum 0B5D997D473F93B946BBA5264A65F03887AA61CBC461B3AEC7B24C3438A1BCFE ====
DVD – Chickenfoot - III (Limited Edition) [2011 г., Hard Rock, DVD5]
Live Albums
Об альбоме: В состав данного концертного альбома вошли четыре трека с тура 2012 года “Different Devil” с альбома III, ранее не выходившие на CD, так же концертные записи сделанные в Фениксе 23 сентября 2009 года, ранее изданные в виде бонус треков.

01. Lighten Up (Live In Chicago) - 6:58
02. Big Foot (Live In Seattle) - 4:21
03. Last Temptation (Live In Seattle) - 4:09
04. Something Going Wrong (Live In Boston) - 6:42
05. Oh Yeah (Live In Phoenix) - 9:10
06. Down The Drain (Live In Phoenix) - 6:18
07. Turnin' Left (Live In Phoenix) - 8:37
08. My Kinda Girl (Live In Phoenix) - 4:37
09. Learning To Fall (Live In Phoenix) - 5:58
Exact Audio Copy V1.0 beta 3 from 29. August 2011

EAC extraction logfile from 28. December 2012, 22:19

Chickenfoot / LV

Used drive : ATAPI iHAS124 B Adapter: 2 ID: 0

Read mode : SecureUtilize accurate stream : YesDefeat audio cache : YesMake use of C2 pointers : No

Read offset correction : 6Overread into Lead-In and Lead-Out : NoFill up missing offset samples with silence : YesDelete leading and trailing silent blocks : NoNull samples used in CRC calculations : YesUsed interface : Native Win32 interface for Win NT & 2000

Used output format : User Defined EncoderSelected bitrate : 1024 kBit/sQuality : HighAdd ID3 tag : NoCommand line compressor : C:\Program Files (x86)\Exact Audio Copy\FLAC\FLAC.EXEAdditional command line options : -8 -V -T "ARTIST=%artist%" -T "TITLE=%title%" -T "ALBUM=%albumtitle%" -T "DATE=%year%" -T "TRACKNUMBER=%tracknr%" -T "GENRE=%genre%" -T "PERFORMER=%albuminterpret%" -T "COMPOSER=%composer%" %haslyrics%--tag-from-file=LYRICS="%lyricsfile%"%haslyrics% -T "ALBUMARTIST=%albumartist%" -T "DISCNUMBER=%cdnumber%" -T "TOTALDISCS=%totalcds%" -T "TOTALTRACKS=%numtracks%" -T "COMMENT=%comment%" %source% -o %dest%

TOC of the extracted CD

Track | Start | Length | Start sector | End sector --------------------------------------------------------- 1 | 0:00.00 | 6:57.60 | 0 | 31334 2 | 6:57.60 | 4:20.74 | 31335 | 50908 3 | 11:18.59 | 4:08.61 | 50909 | 69569 4 | 15:27.45 | 6:42.02 | 69570 | 99721 5 | 22:09.47 | 9:09.74 | 99722 | 140970 6 | 31:19.46 | 6:18.04 | 140971 | 169324 7 | 37:37.50 | 8:37.31 | 169325 | 208130 8 | 46:15.06 | 4:37.14 | 208131 | 228919 9 | 50:52.20 | 5:58.19 | 228920 | 255788

Range status and errors

Selected range

Filename G:\CD\Chickenfoot - LV.wav

Peak level 100.0 % Extraction speed 6.1 X Range quality 100.0 % Test CRC A1F8AED8 Copy CRC A1F8AED8 Copy OK

No errors occurred

AccurateRip summary

Track 1 not present in databaseTrack 2 not present in databaseTrack 3 not present in databaseTrack 4 not present in databaseTrack 5 not present in databaseTrack 6 not present in databaseTrack 7 not present in databaseTrack 8 not present in databaseTrack 9 not present in database

None of the tracks are present in the AccurateRip database

End of status report

==== Log checksum AC3774F78C007DB549261DFC853452365FD7AA4BA09322D3401C6EE45450FDF1 ====

Sammy Hagar — lead vocals, rhythm guitar
Joe Satriani — lead guitar, keyboards
Michael Anthony — bass guitar, backing vocals
Chad Smith — drums, percussion


Трекер:  [ 01-Янв-2013 11:18 ]

  

Скачать .torrent

Размер .torrent файла 19 KB


Размер: 1.35 GB
Хэш (hash) релиза: 915841027984218813b948a7e4b9d75b6499ede5

Еще никто не оставлял запись к записи скачать торрент Chickenfoot - I+III+LV . Будь первым!

!Обратная связь