Скачать через торрент музыку HotLegs бесплатно без регистрации torrent

Если у вас наблюдаются проблемы со скриншотами, переходом по ссылками, скачиванием торрентов - проблемы в блокировщике рекламы AdBlock. #хорошегоДня!


Статистика раздачи
Размер:  433 MB   |    Зарегистрирован:  4 года 7 месяцев   |    .torrent скачан:  27 раз   |   
Раздают:  1  
   
Загрузка...
 
Автор Сообщение

Galfimbul

avatar Galfimbul


HotLegs (Pre 10cc) / You Didn't Like It Because You Didn't Think Of It: The Complete Sessions 1970-1971

Жанр: Rock
Страна-производитель диска: EU, UK
Год издания: 2012
Издатель (лейбл): Grapefruit Records. Red Cherry Records Ltd.
Номер по каталогу: CRSEG024
Страна: England
Аудиокодек: FLAC (*.flac)
Тип рипа: image+.cue
Битрейт аудио: lossless
Продолжительность: 01:04:27
Источник (релизер): Собственный
Наличие сканов в содержимом раздачи: да (PNG, 63Mb, 300dpi)
Об исполнителе : Группа Hotlegs была создана в 1970 году и просуществовала короткий промежуток времени. В состав группы входили Eric Stewart, Kevin Godley, Lol Creme и короткое время в состав группы входил Graham Gouldman.
Об альбоме (сборнике): Впервые альбом с таким названием You Didn't Like It Because You Didn't Think of It был выпущен в 1976 году. В 2012 году треклист был изменён. В состав данного издания вошло полный аглийский вариант альбома Thinks: School Stinks (с перового по одиннадцатый треки), сингл A-side Lady Sadie (12 трек), B-side с сингла Neanderthal Man (12 трек) и альтернативный американский сингл Neanderthal Man (14 трек). Все треки были ремастированны в 2012 году Pascal Byrne.
Wikipedia | Amazon
Треклист:
01. Neanderthal Man - 4:16
02. How Many Times - 4:19
03. Desperate Dan - 2:20
04. Take Me Back - 5:01
05. Um Wah, Um Woh - 5:07
06. Suite F.A. - 12:49
07. Fly Away - 2:45
08. Run Baby Run - 2:54
09. All God's Children - 4:00
10. The Loser - 3:39
11. Today - 4:04
12. Lady Sadie - 4:21
13. You Didn't Like It, Because You Didn't Think Of It - 4:33
14. Neanderthal Man (7' single version) - 4:19
Exact Audio Copy V1.0 beta 3 from 29. August 2011

EAC extraction logfile from 28. December 2012, 23:20

Hotlegs / You Didn't Like It Because You Didn't Think Of It: The Complete Sessions 1970-1971

Used drive : ATAPI iHAS124 B Adapter: 2 ID: 0

Read mode : SecureUtilize accurate stream : YesDefeat audio cache : YesMake use of C2 pointers : No

Read offset correction : 6Overread into Lead-In and Lead-Out : NoFill up missing offset samples with silence : YesDelete leading and trailing silent blocks : NoNull samples used in CRC calculations : YesUsed interface : Native Win32 interface for Win NT & 2000

Used output format : User Defined EncoderSelected bitrate : 1024 kBit/sQuality : HighAdd ID3 tag : NoCommand line compressor : C:\Program Files (x86)\Exact Audio Copy\FLAC\FLAC.EXEAdditional command line options : -8 -V -T "ARTIST=%artist%" -T "TITLE=%title%" -T "ALBUM=%albumtitle%" -T "DATE=%year%" -T "TRACKNUMBER=%tracknr%" -T "GENRE=%genre%" -T "PERFORMER=%albuminterpret%" -T "COMPOSER=%composer%" %haslyrics%--tag-from-file=LYRICS="%lyricsfile%"%haslyrics% -T "ALBUMARTIST=%albumartist%" -T "DISCNUMBER=%cdnumber%" -T "TOTALDISCS=%totalcds%" -T "TOTALTRACKS=%numtracks%" -T "COMMENT=%comment%" %source% -o %dest%

TOC of the extracted CD

Track | Start | Length | Start sector | End sector --------------------------------------------------------- 1 | 0:00.00 | 4:15.59 | 0 | 19183 2 | 4:15.59 | 4:18.49 | 19184 | 38582 3 | 8:34.33 | 2:19.65 | 38583 | 49072 4 | 10:54.23 | 5:01.31 | 49073 | 71678 5 | 15:55.54 | 5:07.14 | 71679 | 94717 6 | 21:02.68 | 12:49.12 | 94718 | 152404 7 | 33:52.05 | 2:45.31 | 152405 | 164810 8 | 36:37.36 | 2:53.50 | 164811 | 177835 9 | 39:31.11 | 4:00.17 | 177836 | 195852 10 | 43:31.28 | 3:39.26 | 195853 | 212303 11 | 47:10.54 | 4:03.38 | 212304 | 230566 12 | 51:14.17 | 4:20.65 | 230567 | 250131 13 | 55:35.07 | 4:33.04 | 250132 | 270610 14 | 60:08.11 | 4:18.40 | 270611 | 290000

Range status and errors

Selected range

Filename G:\CD\Hotlegs.wav

Peak level 98.8 % Extraction speed 6.0 X Range quality 100.0 % Test CRC D065F904 Copy CRC D065F904 Copy OK

No errors occurred

AccurateRip summary

Track 1 accurately ripped (confidence 1) [F27F3435] (AR v1)Track 2 accurately ripped (confidence 1) [9DEADDA1] (AR v1)Track 3 accurately ripped (confidence 1) [E7E4B24D] (AR v1)Track 4 accurately ripped (confidence 1) [0CF65BCB] (AR v1)Track 5 accurately ripped (confidence 1) [76C4CF6A] (AR v1)Track 6 accurately ripped (confidence 1) [C476A644] (AR v1)Track 7 accurately ripped (confidence 1) [AF2B91A8] (AR v1)Track 8 accurately ripped (confidence 1) [F447F728] (AR v1)Track 9 accurately ripped (confidence 1) [4CE58396] (AR v1)Track 10 accurately ripped (confidence 1) [902BC6CF] (AR v1)Track 11 accurately ripped (confidence 1) [BC01E93A] (AR v1)Track 12 accurately ripped (confidence 1) [1577DB9F] (AR v1)Track 13 accurately ripped (confidence 1) [A6756463] (AR v1)Track 14 accurately ripped (confidence 1) [B918B950] (AR v1)

All tracks accurately ripped

End of status report

==== Log checksum 9BA36B8DDB517785701DCC2A594EEA77ED4B2B95B19A8592998252CBD40F8D28 ====



Трекер:  [ 01-Янв-2013 11:18 ]

  

Скачать .torrent

Размер .torrent файла 19 KB


Размер: 433 MB
Хэш (hash) релиза: 972dfab3053fc3f52feb3316895c836c02b7f9ad

Еще никто не оставлял запись к записи скачать торрент HotLegs . Будь первым!

!Обратная связь