Скачать через торрент музыку Cressida - Trapped in Time: The Lost Tapes - 1969 бесплатно без регистрации torrent

Если у вас наблюдаются проблемы со скриншотами, переходом по ссылками, скачиванием торрентов - проблемы в блокировщике рекламы AdBlock. #хорошегоДня!


Статистика раздачи
Размер:  190 MB   |    Зарегистрирован:  4 года 7 месяцев   |    .torrent скачан:  20 раз   |   
Раздают:  1  
   
Загрузка...
 
Автор Сообщение

Galfimbul

avatar Galfimbul


Cressida / Trapped in Time: The Lost Tapes

Жанр: Symphonic Prog
Страна-производитель диска: EU
Год издания: 2012
Издатель (лейбл): Esoteric
Номер по каталогу: ECLEC2347
Страна: UK
Аудиокодек: FLAC (*.flac)
Тип рипа: image+.cue
Битрейт аудио: lossless
Источник (релизер): kirill-purple
Наличие сканов в содержимом раздачи: да

Репост с любезного разрешения автора - Игоря из Брянска

Треклист:
1. To Play Your Little Game
2. Winter Is Coming Again
3. Cressida
4. Depression
5. Sad Eyed Fairy
6. Lights In My Mind
7. Let Them Come When They Will
8. Situation
9. The Only Earthman In Town
10. Down Down
11. Mental State
12. Silent Light (Previously Unreleased)
13. Situation (Alternate Version Previously Unreleased)
Exact Audio Copy V0.99 prebeta 4 from 23. January 2008

Отчёт EAC об извлечении, выполненном 27. декабря 2012, 17:24

Cressida / Trapped in Time: The Lost Tapes

Дисковод: ASUS DRW-24B1ST Adapter: 3 ID: 0

Режим чтения : ДостоверностьИспользование точного потока : ДаОтключение кэша аудио : ДаИспользование указателей C2 : Нет

Коррекция смещения при чтении : 6Способность читать области Lead-in и Lead-out : НетЗаполнение пропущенных сэмплов тишиной : ДаУдаление блоков с тишиной в начале и конце : НетПри вычислениях CRC использовались нулевые сэмплы : ДаИнтерфейс : Встроенный Win32-интерфейс для Win NT/2000

Выходной формат : Пользовательский кодировщикВыбранный битрейт : 768 kBit/sКачество : ВысокийДобавление ID3-тэга : НетУтилита сжатия : C:\Program Files\Exact Audio Copy\FLAC\FLAC.EXEДополнительные параметры : -6 -V -T "ARTIST=%a" -T "TITLE=%t" -T "ALBUM=%g" -T "DATE=%y" -T "TRACKNUMBER=%n" -T "GENRE=%m" -T "COMMENT=%e" %s -o %d

TOC извлечённого CD

Трек | Старт | Длительность | Начальный сектор | Конечный сектор --------------------------------------------------------------------- 1 | 0:00.00 | 3:12.52 | 0 | 14451 2 | 3:12.52 | 3:52.08 | 14452 | 31859 3 | 7:04.60 | 4:02.64 | 31860 | 50073 4 | 11:07.49 | 3:32.17 | 50074 | 65990 5 | 14:39.66 | 3:11.21 | 65991 | 80336 6 | 17:51.12 | 3:13.39 | 80337 | 94850 7 | 21:04.51 | 2:58.70 | 94851 | 108270 8 | 24:03.46 | 3:26.50 | 108271 | 123770 9 | 27:30.21 | 3:32.69 | 123771 | 139739 10 | 31:03.15 | 4:12.16 | 139740 | 158655 11 | 35:15.31 | 3:44.58 | 158656 | 175513 12 | 39:00.14 | 5:00.17 | 175514 | 198030 13 | 44:00.31 | 3:36.17 | 198031 | 214247

Характеристики диапазона извлечения и сообщения об ошибках

Выбранный диапазон

Имя файла D:\purple\EAC\Cressida - Trapped in Time The Lost Tapes.wav

Пиковый уровень 98.8 % Качество диапазона 100.0 % CRC теста 99288589 CRC копии 99288589 Копирование... OK

Ошибок не произошло

AccurateRip: сводка

Трек 1 нет в базе данныхТрек 2 нет в базе данныхТрек 3 нет в базе данныхТрек 4 нет в базе данныхТрек 5 нет в базе данныхТрек 6 нет в базе данныхТрек 7 нет в базе данныхТрек 8 нет в базе данныхТрек 9 нет в базе данныхТрек 10 нет в базе данныхТрек 11 нет в базе данныхТрек 12 нет в базе данныхТрек 13 нет в базе данных

Ни одного трека нет в базе AccurateRip

Конец отчёта
FIRST EVER CD RELEASE EDITION OF THE RARE 1969 DEMOS BY THE LEGENDARY CRESSIDA
NEVER BEFORE RELEASED ON CD WITH TWO PREVIOUSLY UNRELEASED TRACKS
BOOKLET WITH FULLY RESTORED ARTWORK & NEW ESSAY
Esoteric Recordings are pleased to announce the first ever CD released of TRAPPED IN TIME, a collection of rare demos and recordings made in 1969 by the legendary band CRESSIDA. The band would later sign to VERTIGO records, recording two classic albums for the label. TRAPPED IN TIME reflects the very first recordings made by the band prior to signing to Vertigo and was previously released as 500 limited edition LP.
Angus Cullen / Vocals
John Heyworth / Guitar
Kevin McCarthy / Bass
Lol Coker / Organ
Peter Jennings / Organ (on tracks 3,4 & 5)
Iain Clark / Drums


Трекер:  [ 01-Янв-2013 11:18 ]

  

Скачать .torrent

Размер .torrent файла 16 KB


Размер: 190 MB
Хэш (hash) релиза: ec226b951908b4b809634000686565234add64d5

Еще никто не оставлял запись к записи скачать торрент Cressida - Trapped in Time: The Lost Tapes - 1969 . Будь первым!

!Обратная связь