Скачать через торрент музыку Marathon - Norm 1996 , FLAC бесплатно без регистрации torrent

Если у вас наблюдаются проблемы со скриншотами, переходом по ссылками, скачиванием торрентов - проблемы в блокировщике рекламы AdBlock. #хорошегоДня!


Статистика раздачи
Размер:  296 MB   |    Зарегистрирован:  4 года 7 месяцев   |    .torrent скачан:  19 раз   |   
Раздают:  1  
   
Загрузка...
 
Автор Сообщение

Galfimbul

avatar Galfimbul


Marathon / Norm 1996

Жанр: Neo-Prog
Страна-производитель диска: Germany
Год издания: 1996
Издатель (лейбл): SPV
Номер по каталогу: 085 - 28252 CD
Страна: The Netherlands
Аудиокодек: FLAC (*.flac)
Тип рипа: image+.cue
Битрейт аудио: lossless
Продолжительность: 45:04
Источник (релизер): my CD
Наличие сканов в содержимом раздачи: да

Треклист:
1. Ozone Layer (5:41)
2. Heart Of Another One (6:43)
3. Norm (4:33)
4. The Beauty Of Silence (4:52)
5. Casanovas (7:24)
6. Somewhere (5:35)
7. Crime (he Didn't Commit) (4:06)
8. Magic Of Music (6:10)
Exact Audio Copy V0.99 prebeta 4 from 23. January 2008

Отчёт EAC об извлечении, выполненном 27. декабря 2012, 15:28

Marathon / Norm

Дисковод: PIONEER DVD-RW DVR-219L Adapter: 3 ID: 1

Режим чтения : ДостоверностьИспользование точного потока : ДаОтключение кэша аудио : ДаИспользование указателей C2 : Нет

Коррекция смещения при чтении : 6Способность читать области Lead-in и Lead-out : НетЗаполнение пропущенных сэмплов тишиной : ДаУдаление блоков с тишиной в начале и конце : НетПри вычислениях CRC использовались нулевые сэмплы : ДаИнтерфейс : Встроенный Win32-интерфейс для Win NT/2000

Выходной формат : Пользовательский кодировщикВыбранный битрейт : 768 kBit/sКачество : ВысокийДобавление ID3-тэга : НетУтилита сжатия : C:\Program Files\Exact Audio Copy\FLAC\FLAC.EXEДополнительные параметры : -6 -V -T "ARTIST=%a" -T "TITLE=%t" -T "ALBUM=%g" -T "DATE=%y" -T "TRACKNUMBER=%n" -T "GENRE=%m" -T "COMMENT=%e" %s -o %d

TOC извлечённого CD

Трек | Старт | Длительность | Начальный сектор | Конечный сектор --------------------------------------------------------------------- 1 | 0:00.00 | 5:41.71 | 0 | 25645 2 | 5:41.71 | 6:43.00 | 25646 | 55870 3 | 12:24.71 | 4:33.00 | 55871 | 76345 4 | 16:57.71 | 4:51.37 | 76346 | 98207 5 | 21:49.33 | 7:23.47 | 98208 | 131479 6 | 29:13.05 | 5:35.00 | 131480 | 156604 7 | 34:48.05 | 4:06.15 | 156605 | 175069 8 | 38:54.20 | 6:10.16 | 175070 | 202835

Характеристики диапазона извлечения и сообщения об ошибках

Выбранный диапазон

Имя файла D:\purple\EAC\Marathon - Norm.wav

Пиковый уровень 89.1 % Качество диапазона 100.0 % CRC теста D01087A5 CRC копии D01087A5 Копирование... OK

Ошибок не произошло

AccurateRip: сводка

Трек 1 точное извлечение (доверие 3) [20133163]Трек 2 точное извлечение (доверие 3) [B8877FAA]Трек 3 точное извлечение (доверие 3) [306D4E40]Трек 4 точное извлечение (доверие 3) [55869E6D]Трек 5 точное извлечение (доверие 3) [7D4ECFEA]Трек 6 точное извлечение (доверие 3) [BB417521]Трек 7 точное извлечение (доверие 3) [9A6F6EA9]Трек 8 точное извлечение (доверие 3) [A7BB8314]

Все треки извлечены точно

Конец отчёта
- Erik ten Bos / lead and backing vocals
- Ronald ten Bos / guitar
- Tony ten Wolde / keyboards
- Ferry Bult / drums and percussion
- Jacques Suurmond / bass and pedals


Трекер:  [ 01-Янв-2013 11:18 ]

  

Скачать .torrent

Размер .torrent файла 12 KB


Размер: 296 MB
Хэш (hash) релиза: dfc08fad8b5d88f68176eb1b464f188f661df47a

Еще никто не оставлял запись к записи скачать торрент Marathon - Norm 1996 , FLAC . Будь первым!

!Обратная связь