Скачать через торрент музыку Deep Purple - April бесплатно без регистрации torrent

Если у вас наблюдаются проблемы со скриншотами, переходом по ссылками, скачиванием торрентов - проблемы в блокировщике рекламы AdBlock. #хорошегоДня!


Статистика раздачи
Размер:  255 MB   |    Зарегистрирован:  4 года 7 месяцев   |    .torrent скачан:  36 раз   |   
Раздают:  1  
   
Загрузка...
 
Автор Сообщение

Galfimbul

avatar Galfimbul


Deep Purple / April ( 1969, EMI Records Ltd., Made in USA)

Жанр: Classic Rock & Hard Rock
Страна-производитель диска: USA
Год издания: 1989
Издатель (лейбл): EMI Rec.
Номер по каталогу: CD-039
Страна: UK
Аудиокодек: APE (*.ape)
Тип рипа: image+.cue
Битрейт аудио: lossless
Продолжительность: 0:44:35
Источник (релизер): Собственный релиз
Наличие сканов в содержимом раздачи: да
Треклист:
1. Chasing Shadows
2. Blind
3. Lalena
4. Fault Line / The Painter
5. Why Didn't Rosemary?
6. Bird Has Flown
7. April
Exact Audio Copy V0.99 prebeta 5 from 4. May 2009

Отчёт EAC об извлечении, выполненном 15. января 2008, 19:10

Deep Purple / April

Дисковод: TSSTcorpCDDVDW TS-L633M Adapter: 1 ID: 0

Режим чтения : ДостоверностьИспользование точного потока : ДаОтключение кэша аудио : ДаИспользование указателей C2 : Нет

Коррекция смещения при чтении : 6Способность читать области Lead-in и Lead-out : НетЗаполнение пропущенных сэмплов тишиной : ДаУдаление блоков с тишиной в начале и конце : НетПри вычислениях CRC использовались нулевые сэмплы : НетИнтерфейс : Встроенный Win32-интерфейс для Win NT/2000

Выходной формат : Внутренние WAV-операцииФормат сэмплов : 44.100 Гц; 16 бит; стерео

TOC извлечённого CD

Трек | Старт | Длительность | Начальный сектор | Конечный сектор --------------------------------------------------------------------- 1 | 0:00.00 | 5:36.05 | 0 | 25204 2 | 5:36.05 | 5:26.70 | 25205 | 49724 3 | 11:03.00 | 5:06.05 | 49725 | 72679 4 | 16:09.05 | 5:39.05 | 72680 | 98109 5 | 21:48.10 | 5:04.70 | 98110 | 120979 6 | 26:53.05 | 5:37.02 | 120980 | 146256 7 | 32:30.07 | 12:04.68 | 146257 | 200624

Характеристики диапазона извлечения и сообщения об ошибках

Выбранный диапазон

Имя файла C:\Users\Mishany\Documents\Deep Purple - April\Deep Purple - April.wav

Пиковый уровень 91.7 % Качество диапазона 100.0 % CRC теста 9121950F CRC копии 9121950F Копирование... OK

Ошибок не произошло

AccurateRip: сводка

Трек 1 точное извлечение (доверие 7) [AB39A985]Трек 2 точное извлечение (доверие 6) [9B9B16A2]Трек 3 точное извлечение (доверие 6) [82DEF494]Трек 4 точное извлечение (доверие 6) [A1C102B8]Трек 5 точное извлечение (доверие 6) [BB92DCAC]Трек 6 точное извлечение (доверие 5) [FD3E89B1]Трек 7 точное извлечение (доверие 6) [BC1F10AC]

Все треки извлечены точно

Конец отчёта
REM GENRE rockREM DATE 1969REM DISCID 550A7307REM COMMENT "ExactAudioCopy v0.99pb5"PERFORMER "Deep Purple"TITLE "April"FILE "Deep Purple - April.ape" WAVE TRACK 01 AUDIO TITLE "Chasing shadows" PERFORMER "Deep Purple" INDEX 01 00:00:00 TRACK 02 AUDIO TITLE "Blind" PERFORMER "Deep Purple" INDEX 00 05:34:12 INDEX 01 05:36:05 TRACK 03 AUDIO TITLE "Lalena" PERFORMER "Deep Purple" INDEX 00 11:00:15 INDEX 01 11:03:00 TRACK 04 AUDIO TITLE "a) Fault line; b) The Painter" PERFORMER "Deep Purple" INDEX 00 16:07:00 INDEX 01 16:09:05 TRACK 05 AUDIO TITLE "Why didn't rosemary?" PERFORMER "Deep Purple" INDEX 00 21:45:25 INDEX 01 21:48:10 TRACK 06 AUDIO TITLE "Bird has flown" PERFORMER "Deep Purple" INDEX 00 26:49:50 INDEX 01 26:53:05 TRACK 07 AUDIO TITLE "April" PERFORMER "Deep Purple" INDEX 00 32:27:17 INDEX 01 32:30:07


Трекер:  [ 01-Янв-2013 11:16 ]

  

Скачать .torrent

Размер .torrent файла 20 KB


Размер: 255 MB
Хэш (hash) релиза: 16e7d9c94130961450158d9959616d1fe57daea9

Торренты, похожие на Deep Purple - April скачать торрент

Форум Название Автор Размер S L Добавлен
Электронная музыка (lossless) ·· (Deep House) [WEB] Gorillaz feat. D.R.A.M. - Andromeda [Purple Disco Machine Remix] - 21 April, 2017, FLAC (tracks), lossless Galfimbul 4352715742 MB 0 0 1492892014

23:13

22-Апр-17

Еще никто не оставлял запись к записи скачать торрент Deep Purple - April . Будь первым!

!Обратная связь