Скачать через торрент музыку Michael West бесплатно без регистрации torrent

Если у вас наблюдаются проблемы со скриншотами, переходом по ссылками, скачиванием торрентов - проблемы в блокировщике рекламы AdBlock. #хорошегоДня!


Статистика раздачи
Размер:  331 MB   |    Зарегистрирован:  4 года 10 месяцев   |    .torrent скачан:  25 раз   |   
Раздают:  1  
   
Загрузка...
 
Автор Сообщение

Galfimbul

avatar Galfimbul


Michael West (pre. Black September) / God - Sex - Money

Жанр: Symphonic Prog / Progressive Rock
Страна-производитель диска: USA
Год издания: 1992
Издатель (лейбл): ZNR Records
Номер по каталогу: ZNR CD-6001
Страна: USA
Аудиокодек: APE (*.ape)
Тип рипа: image+.cue
Битрейт аудио: lossless
Продолжительность: 00:53:41
Источник (релизер): домашние закрома
Наличие сканов в содержимом раздачи: да
Треклист:
1. Cunnilingus (11:30)
2. Overture from Physical Love (8:21)
3. Supreme Military Dictator (7:38)
4. God-Sex-Money (11:50)
5. I Know You Know (14:30)
Exact Audio Copy V1.0 beta 3 from 29. August 2011

Отчёт EAC об извлечении, выполненном 10. декабря 2012, 19:52

Michael West / God-Sex-Money

Дисковод: ASUS SDRW-08D1S-U Adapter: 1 ID: 0

Режим чтения : ДостоверностьИспользование точного потока : ДаОтключение кэша аудио : ДаИспользование указателей C2 : Нет

Коррекция смещения при чтении : 103Способность читать области Lead-in и Lead-out : НетЗаполнение пропущенных сэмплов тишиной : ДаУдаление блоков с тишиной в начале и конце : НетПри вычислениях CRC использовались нулевые сэмплы : ДаИнтерфейс : Встроенный Win32-интерфейс для Win NT/2000

Выходной формат : Пользовательский кодировщикВыбранный битрейт : 1024 kBit/sКачество : ВысокийДобавление ID3-тега : НетУтилита сжатия : C:\Program Files\Exact Audio Copy\Monkey's Audio\MAC.exeДополнительные параметры : %source% %dest% -c3000

TOC извлечённого CD

Трек | Старт | Длительность | Начальный сектор | Конечный сектор --------------------------------------------------------------------- 1 | 0:00.00 | 11:31.25 | 0 | 51849 2 | 11:31.25 | 8:22.40 | 51850 | 89539 3 | 19:53.65 | 7:42.18 | 89540 | 124207 4 | 27:36.08 | 11:50.65 | 124208 | 177522 5 | 39:26.73 | 14:14.47 | 177523 | 241619

Характеристики диапазона извлечения и сообщения об ошибках

Выбранный диапазон

Имя файла H:\!!!-МОИ РАЗДАЧИ-!!!\CD - новые\West Michael (1992) - God - Sex - Money\Michael West - God-Sex-Money.wav

Пиковый уровень 100.0 % Скорость извлечения 2.0 X Качество диапазона 100.0 % CRC теста 40DD6CF6 CRC копии 40DD6CF6 Копирование... OK

Ошибок не произошло

Конец отчёта

---- CUETools DB Plugin V2.1.3

[CTDB TOCID: eKxFUO3LEK7vSseAjy.4wvDQlSc-] disk not present in database, Submit result: eKxFUO3LEK7vSseAjy.4wvDQlSc- has been uploaded

==== Контрольная сумма отчёта 357E6D3A1F3E4AB07A074DE5170437A66C8F0D0133D3402242C4F5502AB10D6A ====
AUDIOCHECKER v2.0 beta (build 457) - by Dester - <a href="mailto:opdester@freemail.hu" class="postLink">opdester@freemail.hu</a>~~~~~~~~~~~~~~~~~~~~~~~~~~~~~~~~~~-=== НЕ РЕДАКТИРУЙТЕ ЭТОТ ФАЙЛ! ===-

Путь: ...\West Michael (1992) - God - Sex - Money

01 -=- Michael West - God-Sex-Money.ape -=- CDDA (100%)

83953876
Доп. информация: Для поклонников клавишного инструментала: MICHAEL WEST демонстрирует прекрасною технику игры на "бело-чёрных", и довольно, незаурядные композиторские способности. Музыка не заежжена и не надоедлива, вообщем, продолжатель славный традиций Морацов-Вейкманов и других коллег по "цеху".
Two years after his God Sex Money album, 1994 saw the release of the sole album by Michael West’s progressive rock quartet Black September, featuring West on keyboards; Jason Harper on violin, bass and lead vocals; Jon Wilson on drums; and Freddy Lutz on
sax, bass and backing vocals. Bill Berends again produced. “The music on the six compositions (between 6 and 13 minutes) is often bombastic, featuring dazzling keyboard runs and a dynamic, very propulsive rhythm section. My highlights are Floodgates (Emerson/Wakeman-inspired keyboard flights and a fiery saxophone solo) and Beast in Plain View (super-bombastic climate delivering swirling electric violin play and an ELP/Ars Nova atmosphere with amazing keyboard work). Despite the obvious hints of ELP and Ars Nova, the sound from Black September is modern, but at some moments a bit too focused on the sensational keyboards and power rhythm section. But in general this album contains lots of exciting, keyboard-driven prog rock.”
1992 instrumental keyboard/drums extravaganza. Michael West plays a host of synths, Bill Berends of Mastermind produces and contributes bass and drum sequencing, and Daren Shaltis handles percussion. Recommended to Wakeman/Emerson fans.
MICHAEL WEST: keyboards
BILL BERENDS: sequencing
DAREN SHALTIS: percussion


Трекер:  [ 28-Дек-2012 16:40 ]

  

Скачать .torrent

Размер .torrent файла 13 KB


Размер: 331 MB
Хэш (hash) релиза: 3a0785ab084eb769546386a509b646dc782f4916

Еще никто не оставлял запись к записи скачать торрент Michael West . Будь первым!

!Обратная связь