Скачать через торрент музыку Bulldozer Age - Volume#1 - 2001, APE бесплатно без регистрации torrent

Если у вас наблюдаются проблемы со скриншотами, переходом по ссылками, скачиванием торрентов - проблемы в блокировщике рекламы AdBlock. #хорошегоДня!


Статистика раздачи
Размер:  175 MB   |    Зарегистрирован:  4 года 10 месяцев   |    .torrent скачан:  18 раз   |   
Раздают:  1  
   
Загрузка...
 
Автор Сообщение

Galfimbul

avatar Galfimbul


Bulldozer' Age / Volume#1

Жанр: Hard Rock
Страна-производитель диска: France
Год издания: 2001
Издатель (лейбл): DISCTRONICS
Номер по каталогу: B'A 37
Страна: France
Аудиокодек: APE (*.ape)
Тип рипа: image+.cue
Битрейт аудио: lossless
Продолжительность: 00:23:10
Источник (релизер): домашние закрома
Наличие сканов в содержимом раздачи: да
Треклист:
1. La reunion t'es mon bebe 7'44
2. L'aiguillon 7'07
3. T'as pas le monopole 4'09
4. Sieur tiedeur 4'04
Exact Audio Copy V1.0 beta 3 from 29. August 2011

Отчёт EAC об извлечении, выполненном 29. ноября 2012, 17:45

Bulldozer' Age / Volume#1

Дисковод: ASUS SDRW-08D1S-U Adapter: 1 ID: 0

Режим чтения : ДостоверностьИспользование точного потока : ДаОтключение кэша аудио : ДаИспользование указателей C2 : Нет

Коррекция смещения при чтении : 103Способность читать области Lead-in и Lead-out : НетЗаполнение пропущенных сэмплов тишиной : ДаУдаление блоков с тишиной в начале и конце : НетПри вычислениях CRC использовались нулевые сэмплы : ДаИнтерфейс : Встроенный Win32-интерфейс для Win NT/2000

Выходной формат : Пользовательский кодировщикВыбранный битрейт : 1024 kBit/sКачество : ВысокийДобавление ID3-тега : НетУтилита сжатия : C:\Program Files\Exact Audio Copy\Monkey's Audio\MAC.exeДополнительные параметры : %source% %dest% -c3000

TOC извлечённого CD

Трек | Старт | Длительность | Начальный сектор | Конечный сектор --------------------------------------------------------------------- 1 | 0:00.00 | 7:49.64 | 0 | 35238 2 | 7:49.64 | 7:08.03 | 35239 | 67341 3 | 14:57.67 | 4:11.36 | 67342 | 86202 4 | 19:09.28 | 4:01.08 | 86203 | 104285

Характеристики диапазона извлечения и сообщения об ошибках

Выбранный диапазон

Имя файла H:\!!!-МОИ РАЗДАЧИ-!!!\cd\Bulldozer' Age (2001) - Volume#1\Bulldozer' Age - Volume#1.wav

Пиковый уровень 100.0 % Скорость извлечения 1.7 X Качество диапазона 100.0 % CRC теста 11C77B39 CRC копии 11C77B39 Копирование... OK

Ошибок не произошло

Конец отчёта

---- CUETools DB Plugin V2.1.3

[CTDB TOCID: q5_rJ.69NpMLROBe.2lkZO5B53s-] disk not present in database, Submit result: q5_rJ.69NpMLROBe.2lkZO5B53s- has been uploaded

==== Контрольная сумма отчёта 79B9C891F9EFDC8391D3A19C95D995D3EC48BE43DCCB7B0DD0388434E2A849B4 ====
AUDIOCHECKER v2.0 beta (build 457) - by Dester - <a href="mailto:opdester@freemail.hu" class="postLink">opdester@freemail.hu</a>~~~~~~~~~~~~~~~~~~~~~~~~~~~~~~~~~~-=== НЕ РЕДАКТИРУЙТЕ ЭТОТ ФАЙЛ! ===-

Путь: ...\Bulldozer' Age (2001) - Volume#1

1 -=- Bulldozer' Age - Volume#1.ape -=- CDDA (100%)

123410916
Доп. информация: Этакий, довольно качественный "хардец" с вокалом на французском языке, который вносит в общую музыкальную картину некий шарм, хотя и выглядит это несколько комично, а название группы довольно точно характеризует её стиль (что, согласитесь, встречается не так часто). Данных о музыкантах найти, к сожалению, не удалось, а сам диск достался мне в качестве бонуса.
Didier Dijoux - guitare rythmique
Yann Devakarne - guitare solo
Laurent Chartier - batterie
Sebastien Hoarau - bass
Daniel Devakarne - chant


Трекер:  [ 28-Дек-2012 16:40 ]

  

Скачать .torrent

Размер .torrent файла 14 KB


Размер: 175 MB
Хэш (hash) релиза: 49a38d8ecb1cb1dcdbcd95095e38bd30bd8b47d4

Еще никто не оставлял запись к записи скачать торрент Bulldozer Age - Volume#1 - 2001, APE . Будь первым!

!Обратная связь