Скачать через торрент музыку Scorpions - Pictured Life: All the Best - 2000, FLAC бесплатно без регистрации torrent

Если у вас наблюдаются проблемы со скриншотами, переходом по ссылками, скачиванием торрентов - проблемы в блокировщике рекламы AdBlock. #хорошегоДня!


Статистика раздачи
Размер:  427 MB   |    Зарегистрирован:  4 года 7 месяцев   |    .torrent скачан:  19 раз   |   
Раздают:  1  
   
Загрузка...
 
Автор Сообщение

Galfimbul

avatar Galfimbul


Scorpions - Pictured Life: All the Best

Жанр: Hard Rock
Страна-производитель диска: Russia
Год издания: 2000
Издатель (лейбл): SONY BMG Russia
Номер по каталогу: 74321-73842-2
Страна: Germany
Аудиокодек: FLAC (*.flac)
Тип рипа: image+.cue
Битрейт аудио: lossless
Продолжительность: 01:08:54
Источник (релизер): оригинальный CD
Наличие сканов в содержимом раздачи: нет
Треклист:
01. In Trance
02. Pictured Life
03. Speedy's Coming
04. In Your Park
05. Life's Like A River
06. Backstage Queen
07. Drifting Sun
08. Living And Dying
09. Virgin Killer
10. Top Of The Bill
11. Far Away
12. Fly People Fly
13. Sun In My Hand
14. Catch Your Train
15. Crying Days
16. Yellow Raven
Exact Audio Copy V0.99 prebeta 5 from 4. May 2009

Отчёт EAC об извлечении, выполненном 27. декабря 2012, 13:39

Scorpions / Pictured Life All The Best [With "Uli Jon Roth"]

Дисковод: _NEC NR-7900A Adapter: 1 ID: 0

Режим чтения : ДостоверностьИспользование точного потока : ДаОтключение кэша аудио : ДаИспользование указателей C2 : Нет

Коррекция смещения при чтении : 685Способность читать области Lead-in и Lead-out : НетЗаполнение пропущенных сэмплов тишиной : ДаУдаление блоков с тишиной в начале и конце : НетПри вычислениях CRC использовались нулевые сэмплы : ДаИнтерфейс : Встроенный Win32-интерфейс для Win NT/2000

Выходной формат : Пользовательский кодировщикВыбранный битрейт : 128 kBit/sКачество : ВысокийДобавление ID3-тэга : НетУтилита сжатия : D:\Exact Audio Copy\Flac\flac.exeДополнительные параметры : -V -8 -T "Date=%year%" -T "Genre=%genre%" %source%

TOC извлечённого CD

Трек | Старт | Длительность | Начальный сектор | Конечный сектор --------------------------------------------------------------------- 1 | 0:00.00 | 4:43.10 | 0 | 21234 2 | 4:43.10 | 3:23.25 | 21235 | 36484 3 | 8:06.35 | 3:35.65 | 36485 | 52674 4 | 11:42.25 | 3:39.35 | 52675 | 69134 5 | 15:21.60 | 3:50.15 | 69135 | 86399 6 | 19:12.00 | 3:12.60 | 86400 | 100859 7 | 22:24.60 | 7:41.00 | 100860 | 135434 8 | 30:05.60 | 3:20.40 | 135435 | 150474 9 | 33:26.25 | 3:43.25 | 150475 | 167224 10 | 37:09.50 | 3:24.59 | 167225 | 182583 11 | 40:34.34 | 5:38.16 | 182584 | 207949 12 | 46:12.50 | 5:03.50 | 207950 | 230724 13 | 51:16.25 | 4:21.60 | 230725 | 250359 14 | 55:38.10 | 3:35.65 | 250360 | 266549 15 | 59:14.00 | 4:38.60 | 266550 | 287459 16 | 63:52.60 | 5:01.15 | 287460 | 310049

Характеристики диапазона извлечения и сообщения об ошибках

Выбранный диапазон

Имя файла D:\Scorpions - Pictured Life All The Best [With ''Uli Jon Roth'']\Scorpions - Pictured Life All The Best [With Uli Jon Roth ].wav

Пиковый уровень 98.0 % Качество диапазона 99.9 % CRC теста 56CA40CC CRC копии 56CA40CC Копирование... OK

Ошибок не произошло

Конец отчёта
AUDIOCHECKER v1.2 - by Dester - <a href="mailto:opdester@freemail.hu" class="postLink">opdester@freemail.hu</a>~~~~~~~~~~~~~~~~~

Started at: четверг, 27. 12. 2012. - 17:55.23

1 file found

1 -===- D:\Scorpions - Pictured Life (2000)\Scorpions - Pictured Life All The Best [With Uli Jon Roth ].flac Extracted successfully Conclusion: This track looks like CDDA with probability 100% Tempfile successfully deleted.

Finished at: четверг, 27. 12. 2012. - 18:24.55 (operation time: 0:29.32)
<a href="http://en.wikipedia.org/wiki/Scorpions_(band)" class="postLink">http://en.wikipedia.org/wiki/Scorpions_(band)</a>
"Сборник лучших вещей "Pictured Life" с подзаголовком All The Best. Этот альбом включает лучшие ранние работы легендарной немецкой команды, которые были написаны в начале 70-х годов."
Klaus Meinevocals
Uli Jon Rothlead guitar, vocals (7,13)
Rudolf Schenkerrhythm guitar
Francis Buchholzbass
Rudy Lennersdrums (except tracks 3,7,11,12 - Jürgen Rosenthal)


Трекер:  [ 28-Дек-2012 16:40 ]

  

Скачать .torrent

Размер .torrent файла 17 KB


Размер: 427 MB
Хэш (hash) релиза: 6c932942dae00ca5ee4a1fd91cc2f5d06fbd737d

Еще никто не оставлял запись к записи скачать торрент Scorpions - Pictured Life: All the Best - 2000, FLAC . Будь первым!

!Обратная связь