Скачать через торрент музыку Gazpacho - Night Remastered Deluxe Edition - 2012, FLAC бесплатно без регистрации torrent

Если у вас наблюдаются проблемы со скриншотами, переходом по ссылками, скачиванием торрентов - проблемы в блокировщике рекламы AdBlock. #хорошегоДня!


Статистика раздачи
Размер:  566 MB   |    Зарегистрирован:  4 года 7 месяцев   |    .torrent скачан:  24 раза   |   
Раздают:  1  
   
Загрузка...
 
Автор Сообщение

Galfimbul

avatar Galfimbul


Gazpacho - Night Remastered Deluxe Edition

Жанр: Progressive Rock
Страна-производитель диска: Польша
Год издания: 2012
Издатель (лейбл): Kscope
Номер по каталогу: KSCOPE224X
Страна: Норвегия
Аудиокодек: FLAC (*.flac)
Тип рипа: tracks+.cue
Битрейт аудио: lossless
Продолжительность: 53:21 + 33.51
Источник (релизер): Диск из личной коллекции
Наличие сканов в содержимом раздачи: да
Треклист:
CD1:
1. Dream of Stone (17:00)
2. Chequered Light Buildings (6:34)
3. Upside Down (9:41)
4. Valerie's Friend (6:29)
5. Massive Illusion (13:37)

CD2:
1. Dream Of Stone (Live) (17:18)
2. Chequered Light Buildings (Live) (6:07)
3. Upside Down (Live) (10:26)
Exact Audio Copy V0.99 prebeta 3 from 28. July 2007

EAC extraction logfile from 27. December 2012, 22:27

Gazpacho / Night

Used drive : SlimtypeDVD A DS8A5SH Adapter: 0 ID: 0

Read mode : SecureUtilize accurate stream : YesDefeat audio cache : YesMake use of C2 pointers : No

Read offset correction : 6Overread into Lead-In and Lead-Out : NoFill up missing offset samples with silence : YesDelete leading and trailing silent blocks : NoNull samples used in CRC calculations : YesUsed interface : Native Win32 interface for Win NT & 2000Gap handling : Appended to previous track

Used output format : User Defined EncoderSelected bitrate : 128 kBit/sQuality : HighAdd ID3 tag : NoCommand line compressor : C:\My Program Files\Exact Audio Copy\Flac\flac.exeAdditional command line options : -8 -V -T "ARTIST=%a" -T "TITLE=%t" -T "ALBUM=%g" -T "DATE=%y" -T "TRACKNUMBER=%n" -T "GENRE=%m" -T "COMMENT=EAC FLAC -8" %s

TOC of the extracted CD

Track | Start | Length | Start sector | End sector --------------------------------------------------------- 1 | 0:00.00 | 17:01.18 | 0 | 76592 2 | 17:01.18 | 6:34.51 | 76593 | 106193 3 | 23:35.69 | 9:39.71 | 106194 | 149689 4 | 33:15.65 | 6:30.40 | 149690 | 178979 5 | 39:46.30 | 13:36.72 | 178980 | 240251

Track 1

Filename C:\My Program Files\Exact Audio Copy\01. Gazpacho – Dream of Stone.wav

Pre-gap length 0:00:02.00

Peak level 97.5 % Track quality 100.0 % Test CRC C5F5D338 Copy CRC C5F5D338 Accurately ripped (confidence 2) [18E9BA9A] Copy OK

Track 2

Filename C:\My Program Files\Exact Audio Copy\02. Gazpacho – Chequered Light Buildings.wav

Peak level 97.3 % Track quality 100.0 % Test CRC DC1CE657 Copy CRC DC1CE657 Accurately ripped (confidence 2) [FB52FAF9] Copy OK

Track 3

Filename C:\My Program Files\Exact Audio Copy\03. Gazpacho – Upside Down.wav

Peak level 97.4 % Track quality 100.0 % Test CRC 24F122B3 Copy CRC 24F122B3 Accurately ripped (confidence 2) [A6B470CF] Copy OK

Track 4

Filename C:\My Program Files\Exact Audio Copy\04. Gazpacho – Valerie's Friend.wav

Peak level 97.4 % Track quality 100.0 % Test CRC E8221B56 Copy CRC E8221B56 Accurately ripped (confidence 2) [90276817] Copy OK

Track 5

Filename C:\My Program Files\Exact Audio Copy\05. Gazpacho – Massive Illusion.wav

Peak level 99.4 % Track quality 100.0 % Test CRC A4AFBC7E Copy CRC A4AFBC7E Accurately ripped (confidence 2) [2A9036A2] Copy OK

All tracks accurately ripped

No errors occurred

End of status report
Exact Audio Copy V0.99 prebeta 3 from 28. July 2007

EAC extraction logfile from 27. December 2012, 23:08

Gazpacho / Night

Used drive : SlimtypeDVD A DS8A5SH Adapter: 0 ID: 0

Read mode : SecureUtilize accurate stream : YesDefeat audio cache : YesMake use of C2 pointers : No

Read offset correction : 6Overread into Lead-In and Lead-Out : NoFill up missing offset samples with silence : YesDelete leading and trailing silent blocks : NoNull samples used in CRC calculations : YesUsed interface : Native Win32 interface for Win NT & 2000Gap handling : Appended to previous track

Used output format : User Defined EncoderSelected bitrate : 128 kBit/sQuality : HighAdd ID3 tag : NoCommand line compressor : C:\My Program Files\Exact Audio Copy\Flac\flac.exeAdditional command line options : -8 -V -T "ARTIST=%a" -T "TITLE=%t" -T "ALBUM=%g" -T "DATE=%y" -T "TRACKNUMBER=%n" -T "GENRE=%m" -T "COMMENT=EAC FLAC -8" %s

TOC of the extracted CD

Track | Start | Length | Start sector | End sector --------------------------------------------------------- 1 | 0:00.00 | 17:18.69 | 0 | 77918 2 | 17:18.69 | 6:07.31 | 77919 | 105474 3 | 23:26.25 | 10:26.65 | 105475 | 152489

Track 1

Filename C:\My Program Files\Exact Audio Copy\01. Gazpacho – Dream of Stone (Live).wav

Pre-gap length 0:00:02.00

Peak level 98.8 % Track quality 100.0 % Test CRC 2481B862 Copy CRC 2481B862 Accurately ripped (confidence 1) [96C4F3AA] Copy OK

Track 2

Filename C:\My Program Files\Exact Audio Copy\02. Gazpacho – Chequered Light Buildings (Live).wav

Peak level 98.8 % Track quality 100.0 % Test CRC B00F7D36 Copy CRC B00F7D36 Accurately ripped (confidence 1) [EC61A0F2] Copy OK

Track 3

Filename C:\My Program Files\Exact Audio Copy\03. Gazpacho – Upside Down (Live).wav

Peak level 98.8 % Track quality 100.0 % Test CRC F8756583 Copy CRC F8756583 Accurately ripped (confidence 1) [4AA00565] Copy OK

All tracks accurately ripped

No errors occurred

End of status report
REM GENRE "Progressive Rock"REM DATE 2012REM DISCID 440C8305REM COMMENT "ExactAudioCopy v0.99pb3"PERFORMER "Gazpacho"TITLE "Night"FILE "01. Gazpacho – Dream of Stone.wav" WAVE TRACK 01 AUDIO TITLE "Dream of Stone" PERFORMER "Gazpacho" INDEX 01 00:00:00FILE "02. Gazpacho – Chequered Light Buildings.wav" WAVE TRACK 02 AUDIO TITLE "Chequered Light Buildings" PERFORMER "Gazpacho" INDEX 01 00:00:00FILE "03. Gazpacho – Upside Down.wav" WAVE TRACK 03 AUDIO TITLE "Upside Down" PERFORMER "Gazpacho" INDEX 01 00:00:00FILE "04. Gazpacho – Valerie's Friend.wav" WAVE TRACK 04 AUDIO TITLE "Valerie's Friend" PERFORMER "Gazpacho" INDEX 01 00:00:00FILE "05. Gazpacho – Massive Illusion.wav" WAVE TRACK 05 AUDIO TITLE "Massive Illusion" PERFORMER "Gazpacho" INDEX 01 00:00:00
REM GENRE "Progressive Rock"REM DATE 2012REM DISCID 1407F103REM COMMENT "ExactAudioCopy v0.99pb3"PERFORMER "Gazpacho"TITLE "Night"FILE "01. Gazpacho – Dream of Stone (Live).wav" WAVE TRACK 01 AUDIO TITLE "Dream of Stone (Live)" PERFORMER "Gazpacho" INDEX 01 00:00:00FILE "02. Gazpacho – Chequered Light Buildings (Live).wav" WAVE TRACK 02 AUDIO TITLE "Chequered Light Buildings (Live)" PERFORMER "Gazpacho" INDEX 01 00:00:00FILE "03. Gazpacho – Upside Down (Live).wav" WAVE TRACK 03 AUDIO TITLE "Upside Down (Live)" PERFORMER "Gazpacho" INDEX 01 00:00:00
Доп. информация: Переиздание классического альбома Gazpacho 2007 года в виде дигибука. На втором диске представлены три песни с оригинального альбома в концертном исполнении, записанные в театре Глория в Колоне, во время турне March Of Ghosts. Для данного переиздания группа перезаписала партии ударных и несколько вокальных партий в тех местах, где на первоначальной записи присутствуют искажения. Ремастеринг проводился в студии Cutting Room в Стокгольме.

Трекер:  [ 28-Дек-2012 16:40 ]

  

Скачать .torrent

Размер .torrent файла 13 KB


Размер: 566 MB
Хэш (hash) релиза: b9a939d2348ad3c9149310ab73bcf41b76927256

Еще никто не оставлял запись к записи скачать торрент Gazpacho - Night Remastered Deluxe Edition - 2012, FLAC . Будь первым!

!Обратная связь