Скачать через торрент музыку Circulus - Clocks Are Like People - 2006, FLAC бесплатно без регистрации torrent

Если у вас наблюдаются проблемы со скриншотами, переходом по ссылками, скачиванием торрентов - проблемы в блокировщике рекламы AdBlock. #хорошегоДня!


Статистика раздачи
Размер:  271 MB   |    Зарегистрирован:  4 года 10 месяцев   |    .torrent скачан:  18 раз   |   
Раздают:  1  
   
Загрузка...
 
Автор Сообщение

Galfimbul

avatar Galfimbul


Circulus - Clocks Are Like People

Жанр: Psychedelic Prog-Folk
Год выпуска диска: 2006
Страна: UK
Производитель диска: Rise Above / RISECD093
Аудио кодек: FLAC
Тип рипа: image+.cue
Битрейт аудио: lossless
Продолжительность: 42:11
Наличие сканов в содержимом раздачи:

Трэклист:
01. Dragon's Dance (3:20)
02. Song Of Our Despair (4:57)
03. Willow Tree (4:56)
04. Wherever She Goes (4:18)
05. Velocity Races (4:03)
06. To The Fields (3:22)
07. Bouree (3:17)
08. This Is The Way (5:34)
09. Reality's A Fantasy (8:22)

Состав:
- Michael Tyack / vocals, guitars, saxophone, cittern
- Lo Polidoro / vocals
- Sam Kelly / drums, vocals
- Ollie Parfitt / Moog, synthesizers
- George Parfitt / bass
- Will Summers / flutes, recorders, crumhorn, shawm
- Victor Hugo Llamas / bongos, percussion

Доп. информация: http://www.progarchives.com/artist.asp?id=2360
EAC extraction logfile from 21. April 2009, 20:15 for CDCirculus / Clocks Are Like People

Used drive : LITE-ON DVDRW LH-20A1H Adapter: 0 ID: 0Read mode : Secure with NO C2, accurate stream, disable cacheRead offset correction : 6Overread into Lead-In and Lead-Out : No

Used output format : Internal WAV Routines 44.100 Hz; 16 Bit; Stereo

Other options : Fill up missing offset samples with silence : Yes Delete leading and trailing silent blocks : No Native Win32 interface for Win NT & 2000

Range status and errorsSelected range Filename C:\blog\upload\Circulus - Clocks Are Like People\Circulus - Clocks Are Like People.wav

Peak level 99.6 % Range quality 100.0 % CRC 892B73BD Copy OK

No errors occured

End of status report
REM GENRE Folk-RockREM DATE 2006REM DISCID 7F09E309REM COMMENT "ExactAudioCopy v0.95b3"PERFORMER "Circulus"TITLE "Clocks Are Like People"FILE "Circulus - Clocks Are Like People.wav" WAVE TRACK 01 AUDIO TITLE "Dragon's Dance" PERFORMER "Circulus" INDEX 01 00:00:00 TRACK 02 AUDIO TITLE "Song Of Our Despair" PERFORMER "Circulus" INDEX 00 03:20:09 INDEX 01 03:20:42 TRACK 03 AUDIO TITLE "Willow Tree" PERFORMER "Circulus" INDEX 00 08:17:28 INDEX 01 08:17:60 TRACK 04 AUDIO TITLE "Wherever She Goes" PERFORMER "Circulus" INDEX 00 13:12:68 INDEX 01 13:13:71 TRACK 05 AUDIO TITLE "Velocity Races" PERFORMER "Circulus" INDEX 00 17:31:58 INDEX 01 17:31:73 TRACK 06 AUDIO TITLE "To The Fields" PERFORMER "Circulus" INDEX 00 21:34:03 INDEX 01 21:35:31 TRACK 07 AUDIO TITLE "Bourйe" PERFORMER "Circulus" INDEX 01 24:57:38 TRACK 08 AUDIO TITLE "This Is The Way" PERFORMER "Circulus" INDEX 00 28:14:28 INDEX 01 28:14:58 TRACK 09 AUDIO TITLE "Reality's A Fantasy" PERFORMER "Circulus" INDEX 00 33:47:54 INDEX 01 33:48:59
[CUETools log; Date: 27.12.2012 21:24:01; Version: 2.1.4][CTDB TOCID: KywlS6.uelbNJN_8EF6FI3UFHWc-] found.Track | CTDB Status 1 | (1/1) Accurately ripped 2 | (1/1) Accurately ripped 3 | (1/1) Accurately ripped 4 | (1/1) Accurately ripped 5 | (1/1) Accurately ripped 6 | (1/1) Accurately ripped 7 | (1/1) Accurately ripped 8 | (1/1) Accurately ripped 9 | (1/1) Accurately ripped[AccurateRip ID: 000d4409-00621732-7f09e309] found.Track [ CRC | V2 ] Status 01 [c217e95b|173164e2] (5+0/5) Accurately ripped 02 [38de2a47|e41d7b63] (5+0/5) Accurately ripped 03 [69d16973|f74100e5] (5+0/5) Accurately ripped 04 [a3ab8b43|142c7965] (5+0/5) Accurately ripped 05 [d562efe3|97aa0a5b] (5+0/5) Accurately ripped 06 [80d0fb0b|efac2d86] (5+0/5) Accurately ripped 07 [3c153706|01088787] (5+0/5) Accurately ripped 08 [42e8628b|17215a74] (5+0/5) Accurately ripped 09 [56066455|b6fe2f8c] (4+0/4) Accurately ripped

Track Peak [ CRC32 ] [W/O NULL] [ LOG ] -- 99,6 [892B73BD] [20CCD175] CRC32 01 99,6 [B130C671] [5230742D] 02 99,6 [09B478AC] [867D2D58] 03 99,6 [D8AF2A85] [9EF3AA7D] 04 99,5 [0CA38D7C] [10D7DC63] 05 99,6 [4A957396] [EB232348] 06 98,8 [3FBD50B6] [F6EAFDC9] 07 99,6 [6415BFE4] [22917AF0] 08 99,6 [B03CF11F] [C721E7CB] 09 99,6 [C6283B28] [F776986F]
источник: и-нет, lom404

Трекер:  [ 28-Дек-2012 16:40 ]

  

Скачать .torrent

Размер .torrent файла 11 KB


Размер: 271 MB
Хэш (hash) релиза: acaa28773587bff632b334e25ceb7b683be7ad5b

Еще никто не оставлял запись к записи скачать торрент Circulus - Clocks Are Like People - 2006, FLAC . Будь первым!

!Обратная связь