Скачать через торрент музыку VA - OMAGGIO A DEMETRIO STRATOS - 2000, APE бесплатно без регистрации torrent

Если у вас наблюдаются проблемы со скриншотами, переходом по ссылками, скачиванием торрентов - проблемы в блокировщике рекламы AdBlock. #хорошегоДня!


Статистика раздачи
Размер:  446 MB   |    Зарегистрирован:  4 года 10 месяцев   |    .torrent скачан:  20 раз   |   
Раздают:  1  
   
Загрузка...
 
Автор Сообщение

Galfimbul

avatar Galfimbul


OMAGGIO A DEMETRIO STRATOS

Жанр: Rock Progressivo Italiano / Progressive Rock
Страна-производитель диска: Italy
Год издания: 2000
Издатель (лейбл): Mellow Records
Номер по каталогу: MMP 377
Страна: Citizens of the Planet Earth
Аудиокодек: APE (*.ape)
Тип рипа: image+.cue
Битрейт аудио: lossless
Продолжительность: 01:14:41
Источник (релизер): домашние закрома
Наличие сканов в содержимом раздачи: да
Треклист:
01. Luca Sapio: Diplofonia
02. Lothorien: Luglio, Agosto, Settembre (nero)
03. Memoria Zero: Salti
04. Memoria Zero: 3 Haiku
- a) L'uovo Della Galina
- b) Lieve
- c) Hans Frost
05. Odessa: Cometa Rossa
06. Cafeteria Murnau: Showdown Tokyo
07. Periferia Del Mondo: Brand-Y / Arbeit Macht Frei
08. Vedda Tribe: Yang Meditation
09. Memoria Zero: Acrostico in memoria di Liao
10. Venus Tebla: Gerontocrazia
11. Imagin'aria: Bassa Marea
12. Raffaello Regoli & Lothorien: L'elefante Bianco
13. Odessa: Esilio
14. Cafeteria Murnau: L'abbattimento Dello Zeppelin
15. Venus Tebla: Il Dubbio
16. Raffaello Regoli & Imagin'aria: Gioia E Rivoluzione
Exact Audio Copy V1.0 beta 3 from 29. August 2011

Отчёт EAC об извлечении, выполненном 9. декабря 2012, 23:44

Various Artists / Omaggio a Demetrio Stratos

Дисковод: ASUS SDRW-08D1S-U Adapter: 1 ID: 0

Режим чтения : ДостоверностьИспользование точного потока : ДаОтключение кэша аудио : ДаИспользование указателей C2 : Нет

Коррекция смещения при чтении : 103Способность читать области Lead-in и Lead-out : НетЗаполнение пропущенных сэмплов тишиной : ДаУдаление блоков с тишиной в начале и конце : НетПри вычислениях CRC использовались нулевые сэмплы : ДаИнтерфейс : Встроенный Win32-интерфейс для Win NT/2000

Выходной формат : Пользовательский кодировщикВыбранный битрейт : 1024 kBit/sКачество : ВысокийДобавление ID3-тега : НетУтилита сжатия : C:\Program Files\Exact Audio Copy\Monkey's Audio\MAC.exeДополнительные параметры : %source% %dest% -c3000

TOC извлечённого CD

Трек | Старт | Длительность | Начальный сектор | Конечный сектор --------------------------------------------------------------------- 1 | 0:00.00 | 0:37.65 | 0 | 2839 2 | 0:37.65 | 3:28.10 | 2840 | 18449 3 | 4:06.00 | 2:30.52 | 18450 | 29751 4 | 6:36.52 | 1:52.70 | 29752 | 38221 5 | 8:29.47 | 4:08.51 | 38222 | 56872 6 | 12:38.23 | 3:22.30 | 56873 | 72052 7 | 16:00.53 | 9:32.10 | 72053 | 114962 8 | 25:32.63 | 6:58.28 | 114963 | 146340 9 | 32:31.16 | 3:21.21 | 146341 | 161436 10 | 35:52.37 | 6:32.61 | 161437 | 190897 11 | 42:25.23 | 4:59.18 | 190898 | 213340 12 | 47:24.41 | 4:18.72 | 213341 | 232762 13 | 51:43.38 | 4:46.49 | 232763 | 254261 14 | 56:30.12 | 3:20.20 | 254262 | 269281 15 | 59:50.32 | 8:47.47 | 269282 | 308853 16 | 68:38.04 | 6:03.32 | 308854 | 336110

Характеристики диапазона извлечения и сообщения об ошибках

Выбранный диапазон

Имя файла H:\!!!-МОИ РАЗДАЧИ-!!!\CD - новые\Demetrio Stratos (2001) - Omaggio a Demetrio Stratos - Tribute\Various Artists - Omaggio a Demetrio Stratos.wav

Пиковый уровень 100.0 % Скорость извлечения 2.3 X Качество диапазона 100.0 % CRC теста 3C0CF30F CRC копии 3C0CF30F Копирование... OK

Ошибок не произошло

Конец отчёта

---- CUETools DB Plugin V2.1.3

[CTDB TOCID: qhyz9UyosqnLA3R8ZvuCqiYHP_8-] disk not present in database, Submit result: qhyz9UyosqnLA3R8ZvuCqiYHP_8- has been uploaded

==== Контрольная сумма отчёта F598068209E9F71E59C435D44B40B2F0957B9842FC3FF67179909EAC0039D8C1 ====
AUDIOCHECKER v2.0 beta (build 457) - by Dester - <a href="mailto:opdester@freemail.hu" class="postLink">opdester@freemail.hu</a>~~~~~~~~~~~~~~~~~~~~~~~~~~~~~~~~~~-=== НЕ РЕДАКТИРУЙТЕ ЭТОТ ФАЙЛ! ===-

Путь: ...\Demetrio Stratos (2001) - Omaggio a Demetrio Stratos - Tribute

01 -=- Various Artists - Omaggio a Demetrio Stratos.ape -=- CDDA (100%)

123776580
Доп. информация: Концерт, посвящённый одному из величайших столпов итальянского прогрессива, неподражаемому вокалисту, волшебнику голосовых связок, "визитной карточке" группы AREA, снискавшему мировую известность далеко за пределами апеннинского полуострова, и так рано навсегда покинувшему сцену и наш бренный мир, Demetrio Stratos(у). Всех не равнодушных, любящих и уважающих Rock Progressivo Italiano, просим "к столу"!

Трекер:  [ 28-Дек-2012 16:40 ]

  

Скачать .torrent

Размер .torrent файла 18 KB


Размер: 446 MB
Хэш (hash) релиза: f2c91cdd0e86cd5b55132cdb267a4acd8ef45965

Еще никто не оставлял запись к записи скачать торрент VA - OMAGGIO A DEMETRIO STRATOS - 2000, APE . Будь первым!

!Обратная связь