Скачать через торрент музыку Mike Oldfield - Guitars - 1999, APE бесплатно без регистрации torrent

Если у вас наблюдаются проблемы со скриншотами, переходом по ссылками, скачиванием торрентов - проблемы в блокировщике рекламы AdBlock. #хорошегоДня!


Статистика раздачи
Размер:  292 MB   |    Зарегистрирован:  4 года 10 месяцев   |    .torrent скачан:  23 раза   |   
Раздают:  1  
   
Загрузка...
 
Автор Сообщение

Galfimbul

avatar Galfimbul


Mike Oldfield / Guitars

Жанр: Progressive & Art-Rock
Страна-производитель диска: Korea
Год издания: 1999
Издатель (лейбл): WEA
Номер по каталогу: WPCP-10407
Страна: UK
Аудиокодек: APE (*.ape)
Тип рипа: image+.cue
Битрейт аудио: lossless
Продолжительность: 0:42:36
Источник (релизер): Собственный релиз
Наличие сканов в содержимом раздачи: да
Треклист:
1. Muse (2:12)
2. Cochise (5:16)
3. Embers (3:51)
4. Summit Day (3:48)
5. Out Of Sight (3:49)
6. B. Blues (4:29)
7. Four Winds (9:33)
8. Enigmatism (3:32)
9. Out Of Mind (3:46)
10. From The Ashes (2:28)
Exact Audio Copy V0.99 prebeta 5 from 4. May 2009

Отчёт EAC об извлечении, выполненном 8. января 2008, 19:51

Mike Oldfield / Guitars

Дисковод: TSSTcorpCDDVDW TS-L633M Adapter: 1 ID: 0

Режим чтения : ДостоверностьИспользование точного потока : ДаОтключение кэша аудио : ДаИспользование указателей C2 : Нет

Коррекция смещения при чтении : 6Способность читать области Lead-in и Lead-out : НетЗаполнение пропущенных сэмплов тишиной : ДаУдаление блоков с тишиной в начале и конце : НетПри вычислениях CRC использовались нулевые сэмплы : НетИнтерфейс : Встроенный Win32-интерфейс для Win NT/2000

Выходной формат : Внутренние WAV-операцииФормат сэмплов : 44.100 Гц; 16 бит; стерео

TOC извлечённого CD

Трек | Старт | Длительность | Начальный сектор | Конечный сектор --------------------------------------------------------------------- 1 | 0:00.00 | 2:12.02 | 0 | 9901 2 | 2:12.02 | 5:15.60 | 9902 | 33586 3 | 7:27.62 | 3:51.48 | 33587 | 50959 4 | 11:19.35 | 3:46.70 | 50960 | 67979 5 | 15:06.30 | 3:48.67 | 67980 | 85146 6 | 18:55.22 | 4:30.33 | 85147 | 105429 7 | 23:25.55 | 9:32.45 | 105430 | 148374 8 | 32:58.25 | 3:32.02 | 148375 | 164276 9 | 36:30.27 | 3:46.70 | 164277 | 181296 10 | 40:17.22 | 2:28.65 | 181297 | 192461

Характеристики диапазона извлечения и сообщения об ошибках

Выбранный диапазон

Имя файла C:\Users\Mishany\Documents\Mike Oldfield - Guitars.(Korea)\Mike Oldfield - Guitars.wav

Пиковый уровень 99.7 % Качество диапазона 100.0 % CRC теста 7A29CB1B CRC копии 7A29CB1B Копирование... OK

Ошибок не произошло

AccurateRip: сводка

Трек 1 точное извлечение (доверие 1) [B77590FD]Трек 2 точное извлечение (доверие 1) [E75F01D4]Трек 3 точное извлечение (доверие 1) [E367E6A5]Трек 4 точное извлечение (доверие 1) [D0C62371]Трек 5 точное извлечение (доверие 1) [C086AB2B]Трек 6 точное извлечение (доверие 1) [682F856F]Трек 7 точное извлечение (доверие 1) [359E9098]Трек 8 точное извлечение (доверие 1) [E9A94F77]Трек 9 точное извлечение (доверие 1) [87908628]Трек 10 точное извлечение (доверие 1) [30B18E4A]

Все треки извлечены точно

Конец отчёта
REM GENRE "Progressive Rock"REM DATE 1999REM DISCID 830A060AREM COMMENT "ExactAudioCopy v0.99pb5"PERFORMER "Mike Oldfield"TITLE "Guitars"FILE "Mike Oldfield - Guitars.ape" WAVE TRACK 01 AUDIO TITLE "Muse" PERFORMER "Mike Oldfield" INDEX 01 00:00:00 TRACK 02 AUDIO TITLE "Cochise" PERFORMER "Mike Oldfield" INDEX 00 02:10:52 INDEX 01 02:12:02 TRACK 03 AUDIO TITLE "Embers" PERFORMER "Mike Oldfield" INDEX 00 07:26:27 INDEX 01 07:27:62 TRACK 04 AUDIO TITLE "Summit Day" PERFORMER "Mike Oldfield" INDEX 00 11:17:72 INDEX 01 11:19:35 TRACK 05 AUDIO TITLE "Out Of Sight" PERFORMER "Mike Oldfield" INDEX 01 15:06:30 TRACK 06 AUDIO TITLE "B. Blues" PERFORMER "Mike Oldfield" INDEX 00 18:53:55 INDEX 01 18:55:22 TRACK 07 AUDIO TITLE "Four Winds" PERFORMER "Mike Oldfield" INDEX 00 23:23:32 INDEX 01 23:25:55 TRACK 08 AUDIO TITLE "Enigmatism" PERFORMER "Mike Oldfield" INDEX 00 32:57:27 INDEX 01 32:58:25 TRACK 09 AUDIO TITLE "Out Of Mind" PERFORMER "Mike Oldfield" INDEX 00 36:28:65 INDEX 01 36:30:27 TRACK 10 AUDIO TITLE "From The Ashes" PERFORMER "Mike Oldfield" INDEX 00 40:15:70 INDEX 01 40:17:22


Трекер:  [ 28-Дек-2012 16:40 ]

  

Скачать .torrent

Размер .torrent файла 12 KB


Размер: 292 MB
Хэш (hash) релиза: cb768f520e548df9f9c358d00d41e0a308c502b2

Еще никто не оставлял запись к записи скачать торрент Mike Oldfield - Guitars - 1999, APE . Будь первым!

!Обратная связь