Скачать через торрент музыку Led Zeppelin - All That Glitters Is Gold - 2004, FLAC бесплатно без регистрации torrent

Если у вас наблюдаются проблемы со скриншотами, переходом по ссылками, скачиванием торрентов - проблемы в блокировщике рекламы AdBlock. #хорошегоДня!


Статистика раздачи
Размер:  679 MB   |    Зарегистрирован:  4 года 7 месяцев   |    .torrent скачан:  30 раз   |   
Раздают:  1  
   
Загрузка...
 
Автор Сообщение

Galfimbul

avatar Galfimbul


Led Zeppelin / All That Glitters Is Gold

Жанр: Hard-rock
Страна-производитель диска: EU
Год издания: 2004
Издатель (лейбл): Celebration Studio Masters
Номер по каталогу: CSM-001 A/B
Страна: UK
Аудиокодек: FLAC (*.flac)
Тип рипа: tracks+.cue
Битрейт аудио: lossless
Продолжительность: CD1 - 01:17:22 CD2 - 00:48:30
Источник (релизер): tapecity.org
Наличие сканов в содержимом раздачи: да
Треклист:
01) Black Dog (outtake) (05:04)
02) Four Sticks (instrumental) (04:33)
03) Four Sticks (alternate take)(05:21)
04) Black Dog (rehearsal take 1)(02:48)
05) Black Dog (rehearsal take 2)(04:06)
06) No Quarter (demo) (04:07)
07) Stairway To Heaven (acoustic demo 1)(04:03)
08) Stairway To Heaven (acoustic demo 2)(02:57)
09) Guitar Improvisations (01:04)
10) Stairway To Heaven (acoustic vocal demo)(06:09)
11) Stairway To Heaven (rehearsal take 1)(08:22)
12) The Battle of Evermore (alternate take)(05:47)
13) Rain Song (original acoustic demo) (04:20)
14) Ten Years Gone (acoustic demo) (01:57)
15) Ten Years Gone (electric demo) (05:05)
16) When The Levee Breaks (alternate take 1)(05:43)
17) When The Levee Breaks (alternate take 2)(05:49)
01) Friends (rehearsal part 1) (04:14)
02) Friends (rehearsal part 2) (14:34)
03) Friends (rehearsal part 3) (07:07)
04) Friends (rehearsal part 4) (02:08)
05) Friends (rehearsal part 5) (03:22)
06) Four Sticks (05:14)
07) Friends (vocal take 1) (04:55)
08) Friends (vocal take 2) (04:26)
09) Four Sticks (take 1 & 2) (02:13)
10) Four Sticks (take 2 continue) (00:15)
EAC extraction logfile from 7. June 2004, 13:27 for CD
Led Zeppelin / All That Glitters Is Gold

Used drive : PLEXTOR CD-R PX-W2410A Adapter: 1 ID: 1
Read mode : Secure with C2, accurate stream, NO disable cache
Read offset correction : 98
Overread into Lead-In and Lead-Out : Yes

Used output format : Internal WAV Routines
44.100 Hz; 16 Bit; Stereo

Other options :
Fill up missing offset samples with silence : Yes
Delete leading and trailing silent blocks : No
Installed external ASPI interface

Track 1
Filename C:\Music\Burn\(01) Black Dog (outtake).wav

Pre-gap length 0:00:02.00

Peak level 98.3 %
Track quality 100.0 %
Test CRC 565E2D9F
Copy CRC 565E2D9F
Copy OK

Track 2
Filename C:\Music\Burn\(02) Four Sticks (instrumental).wav

Peak level 90.3 %
Track quality 100.0 %
Test CRC A39E0CC4
Copy CRC A39E0CC4
Copy OK

Track 3
Filename C:\Music\Burn\(03) Four Sticks (alternate take).wav

Peak level 84.0 %
Track quality 100.0 %
Test CRC A1E0BA9D
Copy CRC A1E0BA9D
Copy OK

Track 4
Filename C:\Music\Burn\(04) Black Dog (rehearsal take 1).wav

Peak level 99.2 %
Track quality 100.0 %
Test CRC 1C181595
Copy CRC 1C181595
Copy OK

Track 5
Filename C:\Music\Burn\(05) Black Dog (rehearsal take 2).wav

Peak level 99.2 %
Track quality 99.9 %
Test CRC 494A971B
Copy CRC 494A971B
Copy OK

Track 6
Filename C:\Music\Burn\(06) No Quarter (demo).wav

Peak level 99.2 %
Track quality 99.9 %
Test CRC 65097F80
Copy CRC 65097F80
Copy OK

Track 7
Filename C:\Music\Burn\(07) Stairway To Heaven (acoustic demo 1).wav

Peak level 91.1 %
Track quality 100.0 %
Test CRC 5CED60E5
Copy CRC 5CED60E5
Copy OK

Track 8
Filename C:\Music\Burn\(08) Stairway To Heaven (acoustic demo 2).wav

Peak level 77.3 %
Track quality 100.0 %
Test CRC A12BCB23
Copy CRC A12BCB23
Copy OK

Track 9
Filename C:\Music\Burn\(09) Guitar Improvisations.wav

Peak level 81.8 %
Track quality 100.0 %
Test CRC A3595687
Copy CRC A3595687
Copy OK

Track 10
Filename C:\Music\Burn\(10) Stairway To Heaven (acoustic vocal demo).wav

Peak level 78.6 %
Track quality 100.0 %
Test CRC 1500AE9E
Copy CRC 1500AE9E
Copy OK

Track 11
Filename C:\Music\Burn\(11) Stairway To Heaven (rehearsal take 1).wav

Peak level 100.0 %
Track quality 100.0 %
Test CRC BCDC07B6
Copy CRC BCDC07B6
Copy OK

Track 12
Filename C:\Music\Burn\(12) The Battle of Evermore (alternate take).wav

Peak level 100.0 %
Track quality 99.9 %
Test CRC 7D81F452
Copy CRC 7D81F452
Copy OK

Track 13
Filename C:\Music\Burn\(13) Rain Song (original acoustic demo).wav

Peak level 78.1 %
Track quality 100.0 %
Test CRC 288C870A
Copy CRC 288C870A
Copy OK

Track 14
Filename C:\Music\Burn\(14) Ten Years Gone (acoustic demo).wav

Peak level 97.1 %
Track quality 100.0 %
Test CRC BA7B721F
Copy CRC BA7B721F
Copy OK

Track 15
Filename C:\Music\Burn\(15) Ten Years Gone (electric demo).wav

Peak level 100.0 %
Track quality 100.0 %
Test CRC 25B76733
Copy CRC 25B76733
Copy OK

Track 16
Filename C:\Music\Burn\(16) When The Levee Breaks (alternate take 1).wav

Peak level 95.4 %
Track quality 100.0 %
Test CRC CB5636AB
Copy CRC CB5636AB
Copy OK

Track 17
Filename C:\Music\Burn\(17) When The Levee Breaks (alternate take 2).wav

Peak level 98.7 %
Track quality 100.0 %
Test CRC CD64AD08
Copy CRC CD64AD08
Copy OK

No errors occured

End of status report
EAC extraction logfile from 7. June 2004, 13:40 for CD
Led Zeppelin / All That Glitters Is Gold - Disc 2

Used drive : PLEXTOR CD-R PX-W2410A Adapter: 1 ID: 1
Read mode : Secure with C2, accurate stream, NO disable cache
Read offset correction : 98
Overread into Lead-In and Lead-Out : Yes

Used output format : Internal WAV Routines
44.100 Hz; 16 Bit; Stereo

Other options :
Fill up missing offset samples with silence : Yes
Delete leading and trailing silent blocks : No
Installed external ASPI interface

Track 1
Filename C:\Music\Burn\(01) Friends (rehearsal part 1).wav

Pre-gap length 0:00:02.00

Peak level 100.0 %
Track quality 100.0 %
Test CRC 05F02679
Copy CRC 05F02679
Copy OK

Track 2
Filename C:\Music\Burn\(02) Friends (rehearsal part 2).wav

Peak level 100.0 %
Track quality 100.0 %
Test CRC 09AC31C1
Copy CRC 09AC31C1
Copy OK

Track 3
Filename C:\Music\Burn\(03) Friends (rehearsal part 3).wav

Peak level 100.0 %
Track quality 100.0 %
Test CRC 160DBA3E
Copy CRC 160DBA3E
Copy OK

Track 4
Filename C:\Music\Burn\(04) Friends (rehearsal part 4).wav

Peak level 100.0 %
Track quality 100.0 %
Test CRC 82836E41
Copy CRC 82836E41
Copy OK

Track 5
Filename C:\Music\Burn\(05) Friends (rehearsal part 5).wav

Peak level 100.0 %
Track quality 100.0 %
Test CRC 719A1460
Copy CRC 719A1460
Copy OK

Track 6
Filename C:\Music\Burn\(06) Four Sticks.wav

Peak level 100.0 %
Track quality 100.0 %
Test CRC E4AC417E
Copy CRC E4AC417E
Copy OK

Track 7
Filename C:\Music\Burn\(07) Friends (vocal take 1).wav

Peak level 100.0 %
Track quality 100.0 %
Test CRC 99FE32FA
Copy CRC 99FE32FA
Copy OK

Track 8
Filename C:\Music\Burn\(08) Friends (vocal take 2).wav

Peak level 100.0 %
Track quality 100.0 %
Test CRC 976C43E5
Copy CRC 976C43E5
Copy OK

Track 9
Filename C:\Music\Burn\(09) Four Sticks (take 1 & 2).wav

Peak level 100.0 %
Track quality 100.0 %
Test CRC 63CB7314
Copy CRC 63CB7314
Copy OK

Track 10
Filename C:\Music\Burn\(10) Four Sticks (take 2 continue).wav

Peak level 100.0 %
Track quality 100.0 %
Test CRC FC508E64
Copy CRC FC508E64
Copy OK

No errors occured

End of status report
REM ACCURATERIPID 002e05d8-02487131-01122211
REM COMMENT "CUETools generated dummy CUE sheet"
PERFORMER ""
TITLE ""
FILE "(01) Black Dog (outtake).flac" WAVE
TRACK 01 AUDIO
TITLE "(01) Black Dog (outtake)"
PERFORMER ""
INDEX 01 00:00:00
FILE "(02) Four Sticks (instrumental).flac" WAVE
TRACK 02 AUDIO
TITLE "(02) Four Sticks (instrumental)"
PERFORMER ""
INDEX 01 00:00:00
FILE "(03) Four Sticks (alternate take).flac" WAVE
TRACK 03 AUDIO
TITLE "(03) Four Sticks (alternate take)"
PERFORMER ""
INDEX 01 00:00:00
FILE "(04) Black Dog (rehearsal take 1).flac" WAVE
TRACK 04 AUDIO
TITLE "(04) Black Dog (rehearsal take 1)"
PERFORMER ""
INDEX 01 00:00:00
FILE "(05) Black Dog (rehearsal take 2).flac" WAVE
TRACK 05 AUDIO
TITLE "(05) Black Dog (rehearsal take 2)"
PERFORMER ""
INDEX 01 00:00:00
FILE "(06) No Quarter (demo).flac" WAVE
TRACK 06 AUDIO
TITLE "(06) No Quarter (demo)"
PERFORMER ""
INDEX 01 00:00:00
FILE "(07) Stairway To Heaven (acoustic demo 1).flac" WAVE
TRACK 07 AUDIO
TITLE "(07) Stairway To Heaven (acoustic demo 1)"
PERFORMER ""
INDEX 01 00:00:00
FILE "(08) Stairway To Heaven (acoustic demo 2).flac" WAVE
TRACK 08 AUDIO
TITLE "(08) Stairway To Heaven (acoustic demo 2)"
PERFORMER ""
INDEX 01 00:00:00
FILE "(09) Guitar Improvisations.flac" WAVE
TRACK 09 AUDIO
TITLE "(09) Guitar Improvisations"
PERFORMER ""
INDEX 01 00:00:00
FILE "(10) Stairway To Heaven (acoustic vocal demo).flac" WAVE
TRACK 10 AUDIO
TITLE "(10) Stairway To Heaven (acoustic vocal demo)"
PERFORMER ""
INDEX 01 00:00:00
FILE "(11) Stairway To Heaven (rehearsal take 1).flac" WAVE
TRACK 11 AUDIO
TITLE "(11) Stairway To Heaven (rehearsal take 1)"
PERFORMER ""
INDEX 01 00:00:00
FILE "(12) The Battle of Evermore (alternate take).flac" WAVE
TRACK 12 AUDIO
TITLE "(12) The Battle of Evermore (alternate take)"
PERFORMER ""
INDEX 01 00:00:00
FILE "(13) Rain Song (original acoustic demo).flac" WAVE
TRACK 13 AUDIO
TITLE "(13) Rain Song (original acoustic demo)"
PERFORMER ""
INDEX 01 00:00:00
FILE "(14) Ten Years Gone (acoustic demo).flac" WAVE
TRACK 14 AUDIO
TITLE "(14) Ten Years Gone (acoustic demo)"
PERFORMER ""
INDEX 01 00:00:00
FILE "(15) Ten Years Gone (electric demo).flac" WAVE
TRACK 15 AUDIO
TITLE "(15) Ten Years Gone (electric demo)"
PERFORMER ""
INDEX 01 00:00:00
FILE "(16) When The Levee Breaks (alternate take 1).flac" WAVE
TRACK 16 AUDIO
TITLE "(16) When The Levee Breaks (alternate take 1)"
PERFORMER ""
INDEX 01 00:00:00
FILE "(17) When The Levee Breaks (alternate take 2).flac" WAVE
TRACK 17 AUDIO
TITLE "(17) When The Levee Breaks (alternate take 2)"
PERFORMER ""
INDEX 01 00:00:00
REM ACCURATERIPID 0016a125-00ace080-9d0b5e0a
REM COMMENT "CUETools generated dummy CUE sheet"
PERFORMER ""
TITLE ""
FILE "(01) Friends (rehearsal part 1).flac" WAVE
TRACK 01 AUDIO
TITLE "(01) Friends (rehearsal part 1)"
PERFORMER ""
INDEX 01 00:00:00
FILE "(02) Friends (rehearsal part 2).flac" WAVE
TRACK 02 AUDIO
TITLE "(02) Friends (rehearsal part 2)"
PERFORMER ""
INDEX 01 00:00:00
FILE "(03) Friends (rehearsal part 3).flac" WAVE
TRACK 03 AUDIO
TITLE "(03) Friends (rehearsal part 3)"
PERFORMER ""
INDEX 01 00:00:00
FILE "(04) Friends (rehearsal part 4).flac" WAVE
TRACK 04 AUDIO
TITLE "(04) Friends (rehearsal part 4)"
PERFORMER ""
INDEX 01 00:00:00
FILE "(05) Friends (rehearsal part 5).flac" WAVE
TRACK 05 AUDIO
TITLE "(05) Friends (rehearsal part 5)"
PERFORMER ""
INDEX 01 00:00:00
FILE "(06) Four Sticks.flac" WAVE
TRACK 06 AUDIO
TITLE "(06) Four Sticks"
PERFORMER ""
INDEX 01 00:00:00
FILE "(07) Friends (vocal take 1).flac" WAVE
TRACK 07 AUDIO
TITLE "(07) Friends (vocal take 1)"
PERFORMER ""
INDEX 01 00:00:00
FILE "(08) Friends (vocal take 2).flac" WAVE
TRACK 08 AUDIO
TITLE "(08) Friends (vocal take 2)"
PERFORMER ""
INDEX 01 00:00:00
FILE "(09) Four Sticks (take 1 & 2).flac" WAVE
TRACK 09 AUDIO
TITLE "(09) Four Sticks (take 1 & 2)"
PERFORMER ""
INDEX 01 00:00:00
FILE "(10) Four Sticks (take 2 continue).flac" WAVE
TRACK 10 AUDIO
TITLE "(10) Four Sticks (take 2 continue)"
PERFORMER ""
INDEX 01 00:00:00
AUDIOCHECKER v1.2 - by Dester - <a href="mailto:opdester@freemail.hu" class="postLink">opdester@freemail.hu</a>
~~~~~~~~~~~~~~~~~
Started at: четверг, 27. 12. 2012. - 8:22.45

17 files found

01 -===- C:\Torrent\Мое\Led Zeppelin - All That Glitters Is Gold\Disc 1\(01) Black Dog (outtake).flac
Extracted successfully
Conclusion: This track looks like CDDA with probability 100%
Tempfile successfully deleted.

02 -===- C:\Torrent\Мое\Led Zeppelin - All That Glitters Is Gold\Disc 1\(02) Four Sticks (instrumental).flac
Extracted successfully
Conclusion: This track looks like CDDA with probability 76%
Tempfile successfully deleted.

03 -===- C:\Torrent\Мое\Led Zeppelin - All That Glitters Is Gold\Disc 1\(03) Four Sticks (alternate take).flac
Extracted successfully
Conclusion: This track looks like CDDA with probability 100%
Tempfile successfully deleted.

04 -===- C:\Torrent\Мое\Led Zeppelin - All That Glitters Is Gold\Disc 1\(04) Black Dog (rehearsal take 1).flac
Extracted successfully
Conclusion: This track looks like CDDA with probability 100%
Tempfile successfully deleted.

05 -===- C:\Torrent\Мое\Led Zeppelin - All That Glitters Is Gold\Disc 1\(05) Black Dog (rehearsal take 2).flac
Extracted successfully
Conclusion: This track looks like CDDA with probability 100%
Tempfile successfully deleted.

06 -===- C:\Torrent\Мое\Led Zeppelin - All That Glitters Is Gold\Disc 1\(06) No Quarter (demo).flac
Extracted successfully
Conclusion: This track looks like CDDA with probability 99%
Tempfile successfully deleted.

07 -===- C:\Torrent\Мое\Led Zeppelin - All That Glitters Is Gold\Disc 1\(07) Stairway To Heaven (acoustic demo 1).flac
Extracted successfully
Conclusion: This track looks like CDDA with probability 100%
Tempfile successfully deleted.

08 -===- C:\Torrent\Мое\Led Zeppelin - All That Glitters Is Gold\Disc 1\(08) Stairway To Heaven (acoustic demo 2).flac
Extracted successfully
Conclusion: This track looks like CDDA with probability 100%
Tempfile successfully deleted.

09 -===- C:\Torrent\Мое\Led Zeppelin - All That Glitters Is Gold\Disc 1\(09) Guitar Improvisations.flac
Extracted successfully
Conclusion: This track looks like CDDA with probability 100%
Tempfile successfully deleted.

10 -===- C:\Torrent\Мое\Led Zeppelin - All That Glitters Is Gold\Disc 1\(10) Stairway To Heaven (acoustic vocal demo).flac
Extracted successfully
Conclusion: This track looks like CDDA with probability 100%
Tempfile successfully deleted.

11 -===- C:\Torrent\Мое\Led Zeppelin - All That Glitters Is Gold\Disc 1\(11) Stairway To Heaven (rehearsal take 1).flac
Extracted successfully
Conclusion: This track looks like CDDA with probability 100%
Tempfile successfully deleted.

12 -===- C:\Torrent\Мое\Led Zeppelin - All That Glitters Is Gold\Disc 1\(12) The Battle of Evermore (alternate take).flac
Extracted successfully
Conclusion: This track looks like CDDA with probability 100%
Tempfile successfully deleted.

13 -===- C:\Torrent\Мое\Led Zeppelin - All That Glitters Is Gold\Disc 1\(13) Rain Song (original acoustic demo).flac
Extracted successfully
Conclusion: This track looks like CDDA with probability 100%
Tempfile successfully deleted.

14 -===- C:\Torrent\Мое\Led Zeppelin - All That Glitters Is Gold\Disc 1\(14) Ten Years Gone (acoustic demo).flac
Extracted successfully
Conclusion: This track looks like CDDA with probability 100%
Tempfile successfully deleted.

15 -===- C:\Torrent\Мое\Led Zeppelin - All That Glitters Is Gold\Disc 1\(15) Ten Years Gone (electric demo).flac
Extracted successfully
Conclusion: This track looks like CDDA with probability 100%
Tempfile successfully deleted.

16 -===- C:\Torrent\Мое\Led Zeppelin - All That Glitters Is Gold\Disc 1\(16) When The Levee Breaks (alternate take 1).flac
Extracted successfully
Conclusion: This track looks like CDDA with probability 100%
Tempfile successfully deleted.

17 -===- C:\Torrent\Мое\Led Zeppelin - All That Glitters Is Gold\Disc 1\(17) When The Levee Breaks (alternate take 2).flac
Extracted successfully
Conclusion: This track looks like CDDA with probability 100%
Tempfile successfully deleted.

Finished at: четверг, 27. 12. 2012. - 8:29.37 (operation time: 0:06.52)
AUDIOCHECKER v1.2 - by Dester - <a href="mailto:opdester@freemail.hu" class="postLink">opdester@freemail.hu</a>
~~~~~~~~~~~~~~~~~
Started at: четверг, 27. 12. 2012. - 8:32.32

10 files found

01 -===- C:\Torrent\Мое\Led Zeppelin - All That Glitters Is Gold\Disc 2\(01) Friends (rehearsal part 1).flac
Extracted successfully
Conclusion: This track looks like CDDA with probability 100%
Tempfile successfully deleted.

02 -===- C:\Torrent\Мое\Led Zeppelin - All That Glitters Is Gold\Disc 2\(02) Friends (rehearsal part 2).flac
Extracted successfully
Conclusion: This track looks like CDDA with probability 100%
Tempfile successfully deleted.

03 -===- C:\Torrent\Мое\Led Zeppelin - All That Glitters Is Gold\Disc 2\(03) Friends (rehearsal part 3).flac
Extracted successfully
Conclusion: This track looks like CDDA with probability 100%
Tempfile successfully deleted.

04 -===- C:\Torrent\Мое\Led Zeppelin - All That Glitters Is Gold\Disc 2\(04) Friends (rehearsal part 4).flac
Extracted successfully
Conclusion: This track looks like CDDA with probability 85%
Tempfile successfully deleted.

05 -===- C:\Torrent\Мое\Led Zeppelin - All That Glitters Is Gold\Disc 2\(05) Friends (rehearsal part 5).flac
Extracted successfully
Conclusion: This track looks like CDDA with probability 62%
Tempfile successfully deleted.

06 -===- C:\Torrent\Мое\Led Zeppelin - All That Glitters Is Gold\Disc 2\(06) Four Sticks.flac
Extracted successfully
Conclusion: This track looks like CDDA with probability 100%
Tempfile successfully deleted.

07 -===- C:\Torrent\Мое\Led Zeppelin - All That Glitters Is Gold\Disc 2\(07) Friends (vocal take 1).flac
Extracted successfully
Conclusion: This track looks like CDDA with probability 100%
Tempfile successfully deleted.

08 -===- C:\Torrent\Мое\Led Zeppelin - All That Glitters Is Gold\Disc 2\(08) Friends (vocal take 2).flac
Extracted successfully
Conclusion: This track looks like CDDA with probability 43%
Tempfile successfully deleted.

09 -===- C:\Torrent\Мое\Led Zeppelin - All That Glitters Is Gold\Disc 2\(09) Four Sticks (take 1 & 2).flac
Extracted successfully
Conclusion: This track looks like CDDA with probability 100%
Tempfile successfully deleted.

10 -===- C:\Torrent\Мое\Led Zeppelin - All That Glitters Is Gold\Disc 2\(10) Four Sticks (take 2 continue).flac
Extracted successfully
Conclusion: This track looks like CDDA with probability 100%
Tempfile successfully deleted.

Finished at: четверг, 27. 12. 2012. - 8:36.37 (operation time: 0:04.04)
Доп. информация: Their Fourth Album Outtakes And Rehearsals. Liberated bootleg.

Трекер:  [ 28-Дек-2012 16:39 ]

  

Скачать .torrent

Размер .torrent файла 16 KB


Размер: 679 MB
Хэш (hash) релиза: 5c10a4d653e615e5d4f6e6fc15ef3f4ab0e2e600

Еще никто не оставлял запись к записи скачать торрент Led Zeppelin - All That Glitters Is Gold - 2004, FLAC . Будь первым!

!Обратная связь