Скачать через торрент музыку The Enid - Aerie Faerie Nonsense бесплатно без регистрации torrent

Если у вас наблюдаются проблемы со скриншотами, переходом по ссылками, скачиванием торрентов - проблемы в блокировщике рекламы AdBlock. #хорошегоДня!


Статистика раздачи
Размер:  201 MB   |    Зарегистрирован:  4 года 10 месяцев   |    .torrent скачан:  27 раз   |   
Раздают:  1  
   
Загрузка...
 
Автор Сообщение

Galfimbul

avatar Galfimbul


The Enid - Aerie Faerie Nonsense

Жанр: Symphonic Prog
Год выпуска диска: 1977, 2010
Страна: United Kingdom
Производитель диска: EMI Records / EWCD17
Аудио кодек: FLAC
Тип рипа: tracks+.cue
Битрейт аудио: lossless
Продолжительность: 36:08
Наличие сканов в содержимом раздачи:

Трэклист:
01. Prelude (1:20)
02. Mayday Galliard (6:09)
03. Ondine (4:01)
04. Childe Roland (7:09)
05. Fand I (11:46)
06. Fand II (5:41)

Состав:
- Robert John Godfrey / keyboards
- Stephen Stewart / guitars and bass
- Francis Lickerish / guitars
- Glen Tollet / bass (only on re-recorded version)
- Chris North / drums and percussion (only on re-recorded version)
- Dave Storey / drums and percussion
- Charlie Elston / keyboards (on original release only)
- Terry Thunderbags Pack / bass (on original release)

Доп. информация: http://www.progarchives.com/artist.asp?id=778
Exact Audio Copy V0.99 prebeta 5 from 4. May 2009

EAC extraction logfile from 18. December 2010, 10:14

The Enid / Aerie Faerie Nonsense

Used drive : TSSTcorpCDDVDW SH-S223C Adapter: 1 ID: 0

Read mode : SecureUtilize accurate stream : YesDefeat audio cache : YesMake use of C2 pointers : No

Read offset correction : 697Overread into Lead-In and Lead-Out : NoFill up missing offset samples with silence : YesDelete leading and trailing silent blocks : NoNull samples used in CRC calculations : YesUsed interface : Native Win32 interface for Win NT & 2000Gap handling : Appended to previous track

Used output format : User Defined EncoderSelected bitrate : 1024 kBit/sQuality : HighAdd ID3 tag : NoCommand line compressor : C:\Program Files (x86)\Exact Audio Copy\FLAC\FLAC.EXEAdditional command line options : -8 -V -T "ARTIST=%a" -T "TITLE=%t" -T "ALBUM=%g" -T "DATE=%y" -T "TRACKNUMBER=%n" -T "TOTALTRACKS=%x" -T "GENRE=%m" -T "ALBUMARTIST=%v" -T "ALBUM ARTIST=%v" -T "COMMENT=EAC Secure Mode, Test & Copy, AccurateRip, FLAC -8" %s

TOC of the extracted CD

Track | Start | Length | Start sector | End sector --------------------------------------------------------- 1 | 0:00.00 | 1:20.50 | 0 | 6049 2 | 1:20.50 | 6:09.27 | 6050 | 33751 3 | 7:30.02 | 4:01.36 | 33752 | 51862 4 | 11:31.38 | 7:09.02 | 51863 | 84039 5 | 18:40.40 | 11:46.21 | 84040 | 137010 6 | 30:26.61 | 5:41.51 | 137011 | 162636

Track 1

Filename C:\The Enid\Aerie Faerie Nonsense\01 - Prelude.wav

Pre-gap length 0:00:02.00

Peak level 97.0 % Track quality 99.8 % Test CRC 8E949259 Copy CRC 8E949259 Accurately ripped (confidence 3) [D637ED4E] Copy OK

Track 2

Filename C:\The Enid\Aerie Faerie Nonsense\02 - Mayday Galliard.wav

Peak level 97.2 % Track quality 100.0 % Test CRC C650FE8F Copy CRC C650FE8F Accurately ripped (confidence 3) [999292ED] Copy OK

Track 3

Filename C:\The Enid\Aerie Faerie Nonsense\03 - Ondine.wav

Peak level 56.0 % Track quality 100.0 % Test CRC 66420BAB Copy CRC 66420BAB Accurately ripped (confidence 3) [85C48D2E] Copy OK

Track 4

Filename C:\The Enid\Aerie Faerie Nonsense\04 - Childe Roland.wav

Peak level 97.5 % Track quality 99.9 % Test CRC B3BED085 Copy CRC B3BED085 Accurately ripped (confidence 3) [5E0758CF] Copy OK

Track 5

Filename C:\The Enid\Aerie Faerie Nonsense\05 - Fand I.wav

Peak level 97.2 % Track quality 99.9 % Test CRC 04C11223 Copy CRC 04C11223 Accurately ripped (confidence 3) [C55393AC] Copy OK

Track 6

Filename C:\The Enid\Aerie Faerie Nonsense\06 - Fand II.wav

Peak level 94.3 % Track quality 100.0 % Test CRC F0590464 Copy CRC F0590464 Accurately ripped (confidence 3) [403A3F3A] Copy OK

All tracks accurately ripped

No errors occurred

End of status report
REM GENRE "Progressive Rock"REM DATE 2010REM DISCID 42087806REM COMMENT "ExactAudioCopy v0.99pb5"PERFORMER "The Enid"TITLE "Aerie Faerie Nonsense"FILE "01 - Prelude.wav" WAVE TRACK 01 AUDIO TITLE "Prelude" PERFORMER "The Enid" INDEX 01 00:00:00FILE "02 - Mayday Galliard.wav" WAVE TRACK 02 AUDIO TITLE "Mayday Galliard" PERFORMER "The Enid" INDEX 01 00:00:00FILE "03 - Ondine.wav" WAVE TRACK 03 AUDIO TITLE "Ondine" PERFORMER "The Enid" INDEX 01 00:00:00FILE "04 - Childe Roland.wav" WAVE TRACK 04 AUDIO TITLE "Childe Roland" PERFORMER "The Enid" INDEX 01 00:00:00FILE "05 - Fand I.wav" WAVE TRACK 05 AUDIO TITLE "Fand I" PERFORMER "The Enid" INDEX 01 00:00:00FILE "06 - Fand II.wav" WAVE TRACK 06 AUDIO TITLE "Fand II" PERFORMER "The Enid" INDEX 01 00:00:00
[CUETools log; Date: 26.12.2012 5:55:24; Version: 2.1.4][CTDB TOCID: PTECV7.CWVRQEPFDOqso1Kai61w-] found.Track | CTDB Status 1 | (2/2) Accurately ripped 2 | (2/2) Accurately ripped 3 | (2/2) Accurately ripped 4 | (2/2) Accurately ripped 5 | (2/2) Accurately ripped 6 | (2/2) Accurately ripped[AccurateRip ID: 000740d9-002938de-42087806] found.Track [ CRC | V2 ] Status 01 [d637ed4e|125077d1] (6+0/6) Accurately ripped 02 [999292ed|32f06c7d] (6+0/6) Accurately ripped 03 [85c48d2e|f3e5070e] (6+0/6) Accurately ripped 04 [5e0758cf|27e943cd] (6+0/6) Accurately ripped 05 [c55393ac|4ac7591f] (6+0/6) Accurately ripped 06 [403a3f3a|b2098bb3] (6+0/6) Accurately rippedOffsetted by -667: 01 [f5bbde10] (0/6) No match (V2 was not tested) 02 [da5db8c9] (0/6) No match (V2 was not tested) 03 [c0e6326f] (0/6) No match (V2 was not tested) 04 [5a4d99b5] (0/6) No match (V2 was not tested) 05 [88dc6483] (0/6) No match (V2 was not tested) 06 [1350345a] (0/6) No match (V2 was not tested)

Track Peak [ CRC32 ] [W/O NULL] [ LOG ] -- 97,5 [17EB1CE4] [864A8C1A] 01 97,0 [8E949259] [36F2D458] CRC32 02 97,2 [C650FE8F] [B4683D7F] CRC32 03 56,0 [66420BAB] [0725CCD4] CRC32 04 97,5 [B3BED085] [0F167564] CRC32 05 97,2 [04C11223] [6BFFC931] CRC32 06 94,3 [F0590464] [DF022C3D] CRC32
источник: сеть

Трекер:  [ 28-Дек-2012 16:39 ]

  

Скачать .torrent

Размер .torrent файла 17 KB


Размер: 201 MB
Хэш (hash) релиза: 064fadad8d7f51c018637a28cd2fe41154d8f7b5

Торренты, похожие на The Enid - Aerie Faerie Nonsense скачать торрент

Форум Название Автор Размер S L Добавлен
Rосk | Mеtаl | Аltеrnаtivе, Рunk, Indереndеnt (losslеss) ·· (Symphonic Progressive) The Enid - Aerie Faerie Nonsense - 1977, FLAC (image+.cue), lossless uzi2009 390832761373 MB 0 0 1324953068

05:31

27-Дек-11

Еще никто не оставлял запись к записи скачать торрент The Enid - Aerie Faerie Nonsense . Будь первым!

!Обратная связь