Скачать через торрент музыку Crazy Aces - Greatest Hits Volume 2 - 2012, FLAC бесплатно без регистрации torrent

Если у вас наблюдаются проблемы со скриншотами, переходом по ссылками, скачиванием торрентов - проблемы в блокировщике рекламы AdBlock. #хорошегоДня!


Статистика раздачи
Размер:  228 MB   |    Зарегистрирован:  4 года 10 месяцев   |    .torrent скачан:  20 раз   |   
Раздают:  1  
   
Загрузка...
 
Автор Сообщение

Galfimbul

avatar Galfimbul


Crazy Aces

Greatest Hits Volume 2

Жанр: Surf, Spy, Western
Страна-производитель диска: USA
Год издания: 2012
Аудиокодек: FLAC (*.flac)
Тип рипа: image+.cue
Битрейт аудио: lossless
Продолжительность: 32:23
Источник (релизер): ©СЁРФ-Маrаtones aka izia1956
Наличие сканов в содержимом раздачи: да



01. Chainsaw Dance (0:40)
02. Invasion of Malibu (2:26)
03. Jedd's Gold Sled (2:49)
04. Eastwood Outlaw (2:32)
05. Attention Shoppers (2:52)
06. Arigato Terauchi (3:10)
07. Hippy Trip (3:11)
08. The Last Song (3:42)
09. Theme from Crazy Aces (2:45)
10. Boogie Bored (2:15)
11. Numb One (2:46)
12. Bangers (2:26)
13. Return of Chainsaw Dance (0:48)

Exact Audio Copy V0.99 prebeta 5 from 4. May 2009

Отчёт EAC об извлечении, выполненном 2. декабря 2012, 10:30

Crazy Aces / Greatest Hits Volume 2

Дисковод: PLEXTOR DVDR PX-880SA Adapter: 1 ID: 0

Режим чтения : ДостоверностьИспользование точного потока : ДаОтключение кэша аудио : ДаИспользование указателей C2 : Нет

Коррекция смещения при чтении : 6Способность читать области Lead-in и Lead-out : НетЗаполнение пропущенных сэмплов тишиной : ДаУдаление блоков с тишиной в начале и конце : НетПри вычислениях CRC использовались нулевые сэмплы : ДаИнтерфейс : Установленный внешний ASPI-интерфейс

Выходной формат : Пользовательский кодировщикВыбранный битрейт : 1024 kBit/sКачество : ВысокийДобавление ID3-тэга : НетУтилита сжатия : C:\Program Files\Exact Audio Copy\FLAC\FLAC.EXEДополнительные параметры : -10 -V -T "ARTIST=%a" -T "TITLE=%t" -T "ALBUM=%g" -T "DATE=%y" -T "TRACKNUMBER=%n" -T "GENRE=%m" -T "COMMENT=%e" %s -o %d

TOC извлечённого CD

Трек | Старт | Длительность | Начальный сектор | Конечный сектор --------------------------------------------------------------------- 1 | 0:00.00 | 0:40.19 | 0 | 3018 2 | 0:40.19 | 2:26.24 | 3019 | 13992 3 | 3:06.43 | 2:49.30 | 13993 | 26697 4 | 5:55.73 | 2:31.44 | 26698 | 38066 5 | 8:27.42 | 2:52.33 | 38067 | 50999 6 | 11:20.00 | 3:10.09 | 51000 | 65258 7 | 14:30.09 | 3:11.15 | 65259 | 79598 8 | 17:41.24 | 3:42.21 | 79599 | 96269 9 | 21:23.45 | 2:45.19 | 96270 | 108663 10 | 24:08.64 | 2:15.09 | 108664 | 118797 11 | 26:23.73 | 2:46.10 | 118798 | 131257 12 | 29:10.08 | 2:25.44 | 131258 | 142176 13 | 31:35.52 | 0:47.63 | 142177 | 145764

Характеристики диапазона извлечения и сообщения об ошибках

Выбранный диапазон

Имя файла D:\BitComet\Crazy Aces - Greatest Hits Volume 2(2012)(flac)\Crazy Aces - Greatest Hits Volume 2.wav

Пиковый уровень 96.8 % Качество диапазона 100.0 % CRC теста 64CCCCAD CRC копии 64CCCCAD Копирование... OK

Ошибок не произошло

AccurateRip: сводка

Трек 1 нет в базе данныхТрек 2 нет в базе данныхТрек 3 нет в базе данныхТрек 4 нет в базе данныхТрек 5 нет в базе данныхТрек 6 нет в базе данныхТрек 7 нет в базе данныхТрек 8 нет в базе данныхТрек 9 нет в базе данныхТрек 10 нет в базе данныхТрек 11 нет в базе данныхТрек 12 нет в базе данныхТрек 13 нет в базе данных

Ни одного трека нет в базе AccurateRip

Конец отчёта
Introducing Crazy Aces, Nashville's only Surfadelic Spy-a-Go Go band!

Jeff Senn, Sam Hawksley, Justin "Oscar" Cary and Tom Hoey donned their tin foil hats, tuned
into the spirit of Link Wray through a Japanese “eleki” radio station and received the
message to start a new band using the ancient devices of tremolo, reverb, fuzz and twang to
bring joy, happiness and fun to audiences as far reaching as their spaceship would carry
them.

As spaceships are difficult to build and maintain, the band has remained in Nashville and
has just finished their first record Crazy Aces Greatest Hits Volume 2.
Доп. информация: ©СЁРФ-Марафон продолжает Crazy Aces!!!

Рип сделан собственноручно.
Сканы в папке.
Ознакомиться (прослушать) можно здесь

Рип от ©СЁРФ-Маrаtones aka izia1956

Трекер:  [ 28-Дек-2012 16:39 ]

  

Скачать .torrent

Размер .torrent файла 19 KB


Размер: 228 MB
Хэш (hash) релиза: 9df7e9baad3b2459b725d1856c6bf3478d0c1076

Еще никто не оставлял запись к записи скачать торрент Crazy Aces - Greatest Hits Volume 2 - 2012, FLAC . Будь первым!

!Обратная связь