Скачать через торрент Bruno Mars - Unorthodox Jukebox - 2012 бесплатно русская версия torrent активатор

Если у вас наблюдаются проблемы со скриншотами, переходом по ссылками, скачиванием торрентов - проблемы в блокировщике рекламы AdBlock. #хорошегоДня!


Статистика раздачи
Размер:  352 MB   |    Зарегистрирован:  4 года 9 месяцев   |    .torrent скачан:  40 раз   |   
Раздают:  1  
   
Загрузка...
 
Автор Сообщение

Galfimbul

avatar Galfimbul


Bruno Mars - Unorthodox Jukebox

Год: 2012
Страна: USA
Страна-производитель диска: USA
Жанр: Pop, R&B, Rock, Soul, Reggae
Тип издания: оригинал
Издатель (лейбл): Atlantic Recording Corporation
Номер по каталогу: 75678762857
Наличие сканов в содержимом раздачи: нет
Продолжительность: 51:58
Вшитые тексты: добавлены
Кодек: ALAC
Программа-риповщик : foobar2000 + iTunes (lossless)
Битрейт: lossless
Треклист:
01 Young Girls 3:49
02 Locked Out Of Heaven 3:54
03 Gorilla 4:04
04 Treasure 2:59
05 Moonshine 3:49
06 When I Was Your Man 3:34
07 Natalie 3:45
08 Show Me 3:28
09 Money Make Her Smile 3:24
10 If I Knew 2:13
11 Old & Crazy 1:53
12 Young Girls [Demo] 3:39
13 Gorilla [Demo] 3:43
14 Moonshine (The Futuristics Remix) 3:42
15 Locked Out Of Heaven (Major Lazer Remix) 4:04
Exact Audio Copy V1.0 beta 3 from 29. August 2011

EAC extraction logfile from 11. December 2012, 18:09

Bruno Mars / Unorthodox Jukebox

Used drive : PLDS DVD+-RW DS-8A5SH Adapter: 1 ID: 0

Read mode : SecureUtilize accurate stream : YesDefeat audio cache : YesMake use of C2 pointers : No

Read offset correction : 6Overread into Lead-In and Lead-Out : NoFill up missing offset samples with silence : YesDelete leading and trailing silent blocks : NoNull samples used in CRC calculations : YesUsed interface : Native Win32 interface for Win NT & 2000Gap handling : Appended to previous track

Used output format : User Defined EncoderSelected bitrate : 32 kBit/sQuality : HighAdd ID3 tag : NoCommand line compressor : C:\Program Files (x86)\FLAC\flac.exeAdditional command line options : -T "artist=%artist%" -T "title=%title%" -T "album=%albumtitle%" -T "date=%year%" -T "tracknumber=%tracknr%" -T "genre=%genre%" -8 --verify %source%

TOC of the extracted CD

Track | Start | Length | Start sector | End sector --------------------------------------------------------- 1 | 0:00.00 | 3:48.54 | 0 | 17153 2 | 3:48.54 | 3:53.49 | 17154 | 34677 3 | 7:42.28 | 4:04.37 | 34678 | 53014 4 | 11:46.65 | 2:58.42 | 53015 | 66406 5 | 14:45.32 | 3:48.43 | 66407 | 83549 6 | 18:34.00 | 3:33.62 | 83550 | 99586 7 | 22:07.62 | 3:45.02 | 99587 | 116463 8 | 25:52.64 | 3:27.42 | 116464 | 132030 9 | 29:20.31 | 3:23.73 | 132031 | 147328 10 | 32:44.29 | 2:13.03 | 147329 | 157306 11 | 34:57.32 | 1:53.06 | 157307 | 165787 12 | 36:50.38 | 3:38.50 | 165788 | 182187 13 | 40:29.13 | 3:42.56 | 182188 | 198893 14 | 44:11.69 | 3:41.68 | 198894 | 215536 15 | 47:53.62 | 4:04.11 | 215537 | 233847

Track 1

Filename G:\BMars\201-Bruno_Mars-Young_Girls.wav

Pre-gap length 0:00:02.00

Peak level 100.0 % Extraction speed 2.4 X Track quality 99.9 % Test CRC FBDC3D9B Copy CRC FBDC3D9B Track not present in AccurateRip database Copy OK

Track 2

Filename G:\BMars\202-Bruno_Mars-Locked_Out_Of_Heaven.wav

Peak level 100.0 % Extraction speed 3.0 X Track quality 100.0 % Test CRC 61DC9259 Copy CRC 61DC9259 Track not present in AccurateRip database Copy OK

Track 3

Filename G:\BMars\203-Bruno_Mars-Gorilla.wav

Peak level 100.0 % Extraction speed 3.3 X Track quality 100.0 % Test CRC C1937A35 Copy CRC C1937A35 Track not present in AccurateRip database Copy OK

Track 4

Filename G:\BMars\204-Bruno_Mars-Treasure.wav

Peak level 100.0 % Extraction speed 3.3 X Track quality 100.0 % Test CRC BDB2F766 Copy CRC BDB2F766 Track not present in AccurateRip database Copy OK

Track 5

Filename G:\BMars\205-Bruno_Mars-Moonshine.wav

Peak level 100.0 % Extraction speed 3.7 X Track quality 100.0 % Test CRC DFA74C39 Copy CRC DFA74C39 Track not present in AccurateRip database Copy OK

Track 6

Filename G:\BMars\206-Bruno_Mars-When_I_Was_Your_Man.wav

Peak level 99.6 % Extraction speed 3.8 X Track quality 100.0 % Test CRC DC711749 Copy CRC DC711749 Track not present in AccurateRip database Copy OK

Track 7

Filename G:\BMars\207-Bruno_Mars-Natalie.wav

Peak level 100.0 % Extraction speed 4.1 X Track quality 100.0 % Test CRC 633A5881 Copy CRC 633A5881 Track not present in AccurateRip database Copy OK

Track 8

Filename G:\BMars\208-Bruno_Mars-Show_Me.wav

Peak level 100.0 % Extraction speed 4.2 X Track quality 100.0 % Test CRC 5D9025C3 Copy CRC 5D9025C3 Track not present in AccurateRip database Copy OK

Track 9

Filename G:\BMars\209-Bruno_Mars-Money_Make_Her_Smile.wav

Peak level 100.0 % Extraction speed 4.3 X Track quality 100.0 % Test CRC 8FF9CF9B Copy CRC 8FF9CF9B Track not present in AccurateRip database Copy OK

Track 10

Filename G:\BMars\210-Bruno_Mars-If_I_Knew.wav

Peak level 100.0 % Extraction speed 4.1 X Track quality 100.0 % Test CRC 93E565A6 Copy CRC 93E565A6 Track not present in AccurateRip database Copy OK

Track 11

Filename G:\BMars\211-Bruno_Mars-Old_&_Crazy_(Feat._Esperanza_Spalding).wav

Peak level 98.8 % Extraction speed 4.0 X Track quality 100.0 % Test CRC 13908E1E Copy CRC 13908E1E Track not present in AccurateRip database Copy OK

Track 12

Filename G:\BMars\212-Bruno_Mars-Young_Girls_(Demo).wav

Peak level 100.0 % Extraction speed 4.7 X Track quality 100.0 % Test CRC E871F789 Copy CRC E871F789 Track not present in AccurateRip database Copy OK

Track 13

Filename G:\BMars\213-Bruno_Mars-Gorilla_(Demo).wav

Peak level 100.0 % Extraction speed 4.2 X Track quality 99.9 % Test CRC 85DC01AB Copy CRC 85DC01AB Track not present in AccurateRip database Copy OK

Track 14

Filename G:\BMars\214-Bruno_Mars-Moonshine_(The_Futuristics_Remix).wav

Peak level 100.0 % Extraction speed 5.0 X Track quality 100.0 % Test CRC 7D10522F Copy CRC 7D10522F Track not present in AccurateRip database Copy OK

Track 15

Filename G:\BMars\215-Bruno_Mars-Locked_Out_Of_Heaven_(Major_Lazer_Remix).wav

Peak level 100.0 % Extraction speed 5.2 X Track quality 100.0 % Test CRC ED982C61 Copy CRC ED982C61 Track not present in AccurateRip database Copy OK

None of the tracks are present in the AccurateRip database

No errors occurred

End of status report

==== Log checksum CB85BEC5D9F40D851881E0B7939F84720D6B6E52251F0844EB3AF83B6CA946BC ====
fooCDtect - foobar2000 + auCDtect, baralgin.

auCDtect: CD records authenticity detector, version 0.8.2Copyright (c) 2004 Oleg Berngardt. All rights reserved.Copyright (c) 2004 Alexander Djourik. All rights reserved.

mode: 0

=========================================== Track: 01. Young Girls Quality: CDDA 100%=========================================== Track: 04. Treasure Quality: MPEG 79%=========================================== Track: 05. Moonshine Quality: MPEG 73%=========================================== Track: 02. Locked Out Of Heaven Quality: CDDA 100%=========================================== Track: 03. Gorilla Quality: CDDA 92%=========================================== Track: 07. Natalie Quality: CDDA 100%=========================================== Track: 06. When I Was Your Man Quality: CDDA 100%=========================================== Track: 08. Show Me Quality: CDDA 100%=========================================== Track: 09. Money Make Her Smile Quality: CDDA 100%=========================================== Track: 12. Young Girls [Demo] Quality: CDDA 100%=========================================== Track: 10. If I Knew Quality: CDDA 100%=========================================== Track: 14. Moonshine (The Futuristics Remix) Quality: CDDA 100%=========================================== Track: 13. Gorilla [Demo] Quality: CDDA 100%=========================================== Track: 15. Locked Out Of Heaven (Major Lazer Remix) Quality: CDDA 99%=========================================== Track: 11. Old & Crazy Quality: CDDA 100%===========================================


Трекер:  [ 02-Янв-2013 14:08 ]

  

Скачать .torrent

Размер .torrent файла 15 KB


Размер: 352 MB
Хэш (hash) релиза: 6e3fe5b673dbaad2374cdb6a4f8459ef2e176ff2

Еще никто не оставлял запись к записи скачать торрент Bruno Mars - Unorthodox Jukebox - 2012 . Будь первым!

!Обратная связь