Скачать через торрент музыку Frank Zappa - Them or Us бесплатно без регистрации torrent

Если у вас наблюдаются проблемы со скриншотами, переходом по ссылками, скачиванием торрентов - проблемы в блокировщике рекламы AdBlock. #хорошегоДня!


Статистика раздачи
Размер:  452 MB   |    Зарегистрирован:  4 года 7 месяцев   |    .torrent скачан:  24 раза   |   
Раздают:  1  
   
Загрузка...
 
Автор Сообщение

Galfimbul

avatar Galfimbul


Frank Zappa / Them or Us (2012 Remaster)

Жанр: Avant-rock
Страна-производитель диска: US
Год издания: 2012
Издатель (лейбл): Zappa Records
Номер по каталогу: ZR 3870
Страна: US
Аудиокодек: FLAC (*.flac)
Тип рипа: image+.cue
Битрейт аудио: lossless
Продолжительность: 1:11:06
Источник (релизер): собственный рип с фирменного диска
Наличие сканов в содержимом раздачи: да
Треклист:
1. The Closer You Are 3:02
2. In France 3:32
3. Ya Hozna 6:27
4. Sharleena 4:34
5. Sinister Footwear II 8:39
6. Truck Driver Divorce 9:07
7. Stevie's Spanking 5:24
8. Baby, Take Your Teeth Out 1:54
9. Marque-Son's Chicken 7:35
10. Planet Of My Dreams 1:42
11. Be In My Video 3:41
12. Them Or Us 5:08
13. Frogs With Dirty Little Lips 2:46
14. Whipping Post 7:35
Exact Audio Copy V1.0 beta 3 from 29. August 2011

EAC extraction logfile from 25. December 2012, 17:15

Frank Zappa / Them Or Us

Used drive : MATSHITADVD-RAM UJ-860S Adapter: 1 ID: 0

Read mode : SecureUtilize accurate stream : YesDefeat audio cache : YesMake use of C2 pointers : No

Read offset correction : 102Overread into Lead-In and Lead-Out : NoFill up missing offset samples with silence : YesDelete leading and trailing silent blocks : NoNull samples used in CRC calculations : YesUsed interface : Native Win32 interface for Win NT & 2000

Used output format : User Defined EncoderSelected bitrate : 128 kBit/sQuality : HighAdd ID3 tag : NoCommand line compressor : C:\Program Files\Exact Audio Copy\Flac\flac.exeAdditional command line options : -V -8 -T "Date=%year%" -T "Genre=%genre%" %source%

TOC of the extracted CD

Track | Start | Length | Start sector | End sector --------------------------------------------------------- 1 | 0:00.00 | 3:01.64 | 0 | 13638 2 | 3:01.64 | 3:32.02 | 13639 | 29540 3 | 6:33.66 | 6:26.70 | 29541 | 58560 4 | 13:00.61 | 4:34.34 | 58561 | 79144 5 | 17:35.20 | 8:39.23 | 79145 | 118092 6 | 26:14.43 | 9:06.53 | 118093 | 159095 7 | 35:21.21 | 5:23.70 | 159096 | 183390 8 | 40:45.16 | 1:54.07 | 183391 | 191947 9 | 42:39.23 | 7:35.15 | 191948 | 226087 10 | 50:14.38 | 1:41.66 | 226088 | 233728 11 | 51:56.29 | 3:40.59 | 233729 | 250287 12 | 55:37.13 | 5:08.40 | 250288 | 273427 13 | 60:45.53 | 2:46.37 | 273428 | 285914 14 | 63:32.15 | 7:34.50 | 285915 | 320014

Range status and errors

Selected range

Filename C:\FZ\1984-#40.Them_or_Us\CD.wav

Peak level 100.0 % Extraction speed 2.6 X Range quality 99.9 % Test CRC D3095AA2 Copy CRC D3095AA2 Copy OK

No errors occurred

AccurateRip summary

Track 1 not present in databaseTrack 2 not present in databaseTrack 3 not present in databaseTrack 4 not present in databaseTrack 5 not present in databaseTrack 6 not present in databaseTrack 7 not present in databaseTrack 8 not present in databaseTrack 9 not present in databaseTrack 10 not present in databaseTrack 11 not present in databaseTrack 12 not present in databaseTrack 13 not present in databaseTrack 14 not present in database

None of the tracks are present in the AccurateRip database

End of status report

==== Log checksum 5EC408ADE77D1ADB2276C2655B7AE69CBA9599E2348BD1869FB3A1CA03F0E99B ====


Трекер:  [ 28-Дек-2012 16:39 ]

  

Скачать .torrent

Размер .torrent файла 36 KB


Размер: 452 MB
Хэш (hash) релиза: 012ab986141d5c26fda5be33a108e86b7ee6c619

Торренты, похожие на Frank Zappa - Them or Us скачать торрент

Форум Название Автор Размер S L Добавлен
Rосk | Mеtаl | Аltеrnаtivе, Рunk, Indереndеnt (losslеss) ·· (Experimental Rock) Frank Zappa — Them Or Us / 1984, FLAC (tracks+.cue), lossless Galfimbul 539716965515 MB 0 0 1297859641

15:34

16-Фев-11

Еще никто не оставлял запись к записи скачать торрент Frank Zappa - Them or Us . Будь первым!

!Обратная связь