Скачать через торрент музыку FM - Only Foolin EP - 2012, FLAC бесплатно без регистрации torrent

Если у вас наблюдаются проблемы со скриншотами, переходом по ссылками, скачиванием торрентов - проблемы в блокировщике рекламы AdBlock. #хорошегоДня!


Статистика раздачи
Размер:  406 MB   |    Зарегистрирован:  4 года 9 месяцев   |    .torrent скачан:  28 раз   |   
Раздают:  1  
   
Загрузка...
 
Автор Сообщение

Galfimbul

avatar Galfimbul


FM / Only Foolin' EP (2012)

Жанр: Melodic Hard Rock/AOR
Страна-производитель диска: UK
Год издания: 2012
Издатель (лейбл): Riff City Records
Номер по каталогу: RCR6CD
Страна: UK
Аудиокодек: FLAC (*.flac)
Тип рипа: image+.cue
Битрейт аудио: lossless
Продолжительность: 50:20
Источник (релизер): собственный рип
Наличие сканов в содержимом раздачи: да

Треклист:
1. Only Foolin' (from the forthcoming album "Rockville") - 4:31
2. Rainbow's End (for EP only) - 5:11
3. Shot in the Dark (Ozzy Osbourne cover, for EP only)- 5:30
4. Let Love Be The Leader (live) - 5:35
5. Don't Stop (live) - 3:44
6. Does it Feel Like Love (live) - 6:06
7. Tough it Out (live) - 4:56
8. Hot Legs (live) - 6:51
9. Only Foolin' (Extended Mix) - 7:53
Exact Audio Copy V1.0 beta 3 from 29. August 2011

EAC extraction logfile from 25. December 2012, 18:46

FM / Only Foolin EP

Used drive : SlimtypeDVD A DS8A5SH Adapter: 0 ID: 1

Read mode : SecureUtilize accurate stream : YesDefeat audio cache : YesMake use of C2 pointers : No

Read offset correction : 6Overread into Lead-In and Lead-Out : NoFill up missing offset samples with silence : YesDelete leading and trailing silent blocks : NoNull samples used in CRC calculations : YesUsed interface : Native Win32 interface for Win NT & 2000

Used output format : User Defined EncoderSelected bitrate : 320 kBit/sQuality : HighAdd ID3 tag : NoCommand line compressor : C:\Program Files (x86)\Exact Audio Copy\Flac\flac.exeAdditional command line options : -V -8 -T "Date=%year%" -T "Genre=%genre%" %source%

TOC of the extracted CD

Track | Start | Length | Start sector | End sector --------------------------------------------------------- 1 | 0:00.00 | 4:31.25 | 0 | 20349 2 | 4:31.25 | 5:11.18 | 20350 | 43692 3 | 9:42.43 | 5:30.73 | 43693 | 68515 4 | 15:13.41 | 5:35.08 | 68516 | 93648 5 | 20:48.49 | 3:44.27 | 93649 | 110475 6 | 24:33.01 | 6:06.16 | 110476 | 137941 7 | 30:39.17 | 4:56.10 | 137942 | 160151 8 | 35:35.27 | 6:51.72 | 160152 | 191048 9 | 42:27.24 | 7:53.06 | 191049 | 226529

Range status and errors

Selected range

Filename D:\My Music\FM - 2012 Only Foolin EP\FM - Only Foolin EP.wav

Peak level 98.0 % Extraction speed 4.2 X Range quality 100.0 % Test CRC 9C36D1A6 Copy CRC 9C36D1A6 Copy OK

No errors occurred

AccurateRip summary

Track 1 not present in databaseTrack 2 not present in databaseTrack 3 not present in databaseTrack 4 not present in databaseTrack 5 not present in databaseTrack 6 not present in databaseTrack 7 not present in databaseTrack 8 not present in databaseTrack 9 not present in database

None of the tracks are present in the AccurateRip database

End of status report

==== Log checksum 89F7BA7DCFF253E042BF0B01D80CECDC2176F32C268143EE5B592A9B9E1B4CCE ====
Steve Overland
lead vocals, guitar
Merv Goldsworthy
bass, backing vocals
Pete Jupp
drums, backing vocals
Jem Davis
keys, harp, backing vocals
Jim Kirkpatrick
lead guitar, backing vocals


Трекер:  [ 28-Дек-2012 16:39 ]

  

Скачать .torrent

Размер .torrent файла 16 KB


Размер: 406 MB
Хэш (hash) релиза: f54c2b2b5b1215ac6e58cdb53649bb612a859951

Еще никто не оставлял запись к записи скачать торрент FM - Only Foolin EP - 2012, FLAC . Будь первым!

!Обратная связь