Скачать через торрент Песни нашего века бесплатно русская версия torrent активатор

Если у вас наблюдаются проблемы со скриншотами, переходом по ссылками, скачиванием торрентов - проблемы в блокировщике рекламы AdBlock. #хорошегоДня!


Статистика раздачи
Размер:  2.73 GB   |    Зарегистрирован:  4 года 9 месяцев   |    .torrent скачан:  69 раз   |   
Раздают:  1  
   
Загрузка...
 
Автор Сообщение

Galfimbul

avatar Galfimbul


Песни нашего века (9 CD)

Год: 1998-2011
Жанр: Авторская песня
Тип издания: сборник
Тексты: вшиты (все песни)
Кодек: ALAC
Программа-риповщик : foobar2000 + iTunes (lossless)
Битрейт:

Песни нашего века – проект, возникший по инициативе ведущих отечественных бардов больше 10 лет назад. Основная идея проекта – исполнение авторской песни «хором» солистов, хорошо известных всем любителям этого жанра.
Участники проекта: Виктор Берковский, Сергей Никитин, Дмитрий Богданов, Георгий Васильев, Алексей Иващенко, Олег Митяев, Вадим и Валерий Мищуки, Константин Тарасов, Галина Хомчик, Лидия Чебоксарова, Александр Мирзаян, Леонид Сергеев, Анатолий Колмыков, Елена Фролова, Сергей Хутас.
«Мы никогда не пели вместе, хотя у каждого из нас за плечами сотни концертов. Мы очень разные люди. Каждый из нас сочиняет и поет в собственной манере. У каждого важные дела и непростой характер. Но мы все-таки собрались и спели хором «Песни нашего века» — авторские песни, ставшие народным достоянием.
Эти простые гитарные песни объединили не только нас. Они сроднили многих и многих людей разных возрастов и профессий. Они возникли на наших глазах и распространились в народе сами собой, минуя эстраду и средства массовой информации. Произошло это потому, что всем им свойственна одна уникальная черта - их хочется не только слушать, но и петь вместе. Они не стареют и не надоедают. Их по-прежнему редко крутят в эфире, но с удовольствием поют хором под гитару.
«Песни нашего века» - громкое название. Но эти песни действительно много значат для нас и для нашего времени. Мы собрались, чтобы спеть их хором, и будем счастливы, если ваши голоса присоединятся к нашим.»
Треклист:
1-01 Ваше благородие... (2:59)
1-02 За туманом (2:26)
1-03 На далёкой Амазонке (2:15)
1-04 Песня полярных лётчиков (2:04)
1-05 Снег (3:42)
1-06 Весеннее танго (2:37)
1-07 Не бродяги, не пропойцы (2:10)
1-08 Под музыку Вивальди (2:45)
1-09 Атланты (2:02)
1-10 Александра (3:40)
1-11 Надя-Наденька (2:05)
1-12 Ночная дорога (4:15)
1-13 Перекаты (2:17)
1-14 Домбайский вальс (2:30)
1-15 А всё кончается (2:14)
1-16 Пароходик (2:15)
1-17 Чёрное море (2:22)
1-18 До свидания, дорогие (2:36)
1-19 Милая моя (2:56)
2-01 Надежды маленький оркестрик (2:05)
2-02 Вершина (2:32)
2-03 Альма Матер (3:16)
2-04 Охотный ряд (2:20)
2-05 Не гляди назад (1:49)
2-06 Вспомните, ребята (2:45)
2-07 Губы окаянные (2:25)
2-08 Вечер бродит (2:06)
2-09 Дожди (2:54)
2-10 Отважный капитан (2:28)
2-11 Грузинская песня (2:46)
2-12 Хромой король (2:15)
2-13 Я бы сказал тебе много хорошего (1:59)
2-14 Брич-Мулла (4:10)
2-15 Городок (2:30)
2-16 Зелёная карета (3:35)
2-17 Песенка о собачке Тябе (2:37)
2-18 Мокрый вальс (3:02)
2-19 Рыба-кит (2:13)
3-01 Бригантина (2:30)
3-02 Гренада (3:11)
3-03 Люди идут по свету (3:13)
3-04 Охота на волков (3:03)
3-05 Над Канадой (2:55)
3-06 Песня из к/ф "Белорусский вокзал" (3:14)
3-07 Ну, пожалуйста! (2:32)
3-08 Ты у меня одна (2:45)
3-09 Чистые пруды (2:25)
3-10 На Большом Каретном (1:50)
3-11 Какой большой ветер (2:39)
3-12 По Смоленской дороге (2:40)
3-13 Контрабандисты (2:45)
3-14 Псков (3:55)
3-15 Мы с тобой давно уже не те... (2:39)
3-16 Фантастика-романтика (2:32)
3-17 Давайте восклицать (1:48)
3-18 Союз друзей (2:55)
4-01 На этом береге туманном (3:07)
4-02 Как здорово, что все мы здесь сегодня собрались (3:05)
4-03 Счастливый жребий (4:46)
4-04 Марк Шагал (2:37)
4-05 Как мы строили навес на даче у Евгения Иваныча (2:53)
4-06 Пароход (3:20)
4-07 С добрым утром, любимая (2:51)
4-08 Уходящему - Синай (3:24)
4-09 Пилигримы (2:46)
4-10 Догорай, моя лучина, догорай (2:02)
4-11 Дорогая моя женщина (3:58)
4-12 Зелёное небо (2:51)
4-13 Памяти Франсуа Рабле (3:12)
4-14 Персидский базар (2:46)
5-01 Песенка о Моцарте (3:19)
5-02 Надежды маленький оркестрик (2:05)
5-03 Живописцы (3:02)
5-04 Надя-Наденька (2:04)
5-05 Песенка о голубом шарике (1:45)
5-06 Заезжий музыкант (2:36)
5-07 Песенка об Арбате (2:41)
5-08 Песня из к/ф "Белорусский Вокзал" (3:12)
5-09 Ваше благородие... (2:59)
5-10 Грузинская песня (2:45)
5-11 Песенка о солдатских сапогах (2:04)
5-12 Батальное полотно (2:39)
5-13 Счастливый жребий (4:47)
5-14 Сентиментальный марш (2:09)
5-15 Песенка о старом короле (2:47)
5-16 Не бродяги, не пропойцы (2:10)
5-17 Давайте восклицать (1:46)
6-01 Божественная суббота (1:57)
6-02 В городском саду (2:41)
6-03 Гренада (3:12)
6-04 Лошади в океане (3:06)
6-05 Песня шагом, шагом (2:11)
6-06 Морская трава (2:07)
6-07 Синее море (2:56)
6-08 Контрабандисты (2:44)
6-09 Куда ты уехала, Сьюзен? (3:53)
6-10 Под музыку Вивальди (2:45)
6-11 Снегопад (4:20)
6-12 Брод через Кабул (2:31)
6-13 Вспомните, ребята (2:44)
6-14 Самолетик (4:33)
6-15 Кленовый лист (4:15)
6-16 Марк Шагал (2:38)
6-17 Персидский базар (2:48)
6-18 На далёкой Амазонке (2:15)
6-19 Мой город засыпает. А мне-то что с того? (2:12)
7-01 Здравствуй, здравствуй, я вернулся (1:49)
7-02 Серёга Санин (3:04)
7-03 Я когда-то состарюсь (3:09)
7-04 Домбайский вальс (2:30)
7-05 Мама, я хочу домой! (2:36)
7-06 Три сосны (2:25)
7-07 Ты у меня одна (2:44)
7-08 Воспоминания о пехоте (2:53)
7-09 Ночная дорога (4:14)
7-10 Сон под пятницу (2:50)
7-11 Мадагаскар (2:18)
7-12 Охотный ряд (2:19)
7-13 Милая моя (2:57)
7-14 Рассказ технолога Петухова (3:02)
7-15 Когда мы вернёмся (4:10)
7-16 До свиданья, дорогие (2:36)
7-17 Давайте прощаться, друзья... (2:27)
8-01 Натянутый канат (3:28)
8-02 Прощание с горами (2:44)
8-03 На Большом Каретном (1:51)
8-04 Утренняя гимнастика (2:18)
8-05 Лирическая (3:18)
8-06 Он не вернулся из боя (3:17)
8-07 Расстрел горного эха (2:23)
8-08 Про дикого вепря (3:09)
8-09 Тот, кто раньше с нею был (3:06)
8-10 Охота на волков (3:05)
8-11 Я несла свою беду (2:52)
8-12 Песня о друге (2:25)
8-13 Пародия на плохой детектив (2:49)
8-14 Песенка о переселении душ (2:20)
8-15 Вершина (2:33)
8-16 Купола (4:51)
9-1. На материк (2:12)
9-2 Ленинградская (2:50)
9-3 Чистые пруды (2:24)
9-4 Итака (стихотворение в исполнении автора) (1:35)
9-5 Геркулесовы столбы (3:14)
9-6 Моряк, покрепче вяжи узлы (2:38)
9-7 Деревянные города (2:47)
9-8 Жена французского посла (2:39)
9-9 Система Декарта (3:06)
9-10 Любите Родину (стихотворение в исполнении автора) (0:58)
9-11 Над Канадой (2:55)
9-12 Паруса Крузенштерна (2:43)
9-13 Снег (3:42)
9-14 Песня полярных лётчиков (2:03)
9-15 Пиратская (2:22)
9-16 Перекаты (2:17)
9-17 Донской монастырь (3:08)
9-18 Ах, не ревнуй (2:25)
9-19 Определение дома (стихотворение в исполнении автора) (1:55)
9-20 Атланты (2:01)
Дополнительная информация:
http://unionpeer.org/forum/viewtopic.php?t=2707915
Exact Audio Copy V0.99 prebeta 5 from 4. May 2009

Отчёт EAC об извлечении, выполненном 31. января 2010, 20:12

Песни нашего века / Песни нашего века

Дисковод: Optiarc DVD RW AD-5200S Adapter: 2 ID: 1

Режим чтения : Достоверность
Использование точного потока : Да
Отключение кэша аудио : Да
Использование указателей C2 : Нет

Коррекция смещения при чтении : 48
Способность читать области Lead-in и Lead-out : Нет
Заполнение пропущенных сэмплов тишиной : Да
Удаление блоков с тишиной в начале и конце : Нет
При вычислениях CRC использовались нулевые сэмплы : Да
Интерфейс : Встроенный Win32-интерфейс для Win NT/2000

Выходной формат : Пользовательский кодировщик
Выбранный битрейт : 128 kBit/s
Качество : Высокий
Добавление ID3-тэга : Нет
Утилита сжатия : C:\Program Files (x86)\FLAC\flac.exe
Дополнительные параметры : -8 -V %s

TOC извлечённого CD

Трек | Старт | Длительность | Начальный сектор | Конечный сектор
---------------------------------------------------------------------
1 | 0:00.00 | 2:59.21 | 0 | 13445
2 | 2:59.21 | 2:25.48 | 13446 | 24368
3 | 5:24.69 | 2:14.67 | 24369 | 34485
4 | 7:39.61 | 2:03.53 | 34486 | 43763
5 | 9:43.39 | 3:41.66 | 43764 | 60404
6 | 13:25.30 | 2:36.55 | 60405 | 72159
7 | 16:02.10 | 2:09.48 | 72160 | 81882
8 | 18:11.58 | 2:44.64 | 81883 | 94246
9 | 20:56.47 | 2:02.19 | 94247 | 103415
10 | 22:58.66 | 3:40.26 | 103416 | 119941
11 | 26:39.17 | 2:05.28 | 119942 | 129344
12 | 28:44.45 | 4:14.42 | 129345 | 148436
13 | 32:59.12 | 2:17.03 | 148437 | 158714
14 | 35:16.15 | 2:29.54 | 158715 | 169943
15 | 37:45.69 | 2:14.21 | 169944 | 180014
16 | 40:00.15 | 2:14.40 | 180015 | 190104
17 | 42:14.55 | 2:21.71 | 190105 | 200750
18 | 44:36.51 | 2:35.68 | 200751 | 212443
19 | 47:12.44 | 2:55.70 | 212444 | 225638

Характеристики диапазона извлечения и сообщения об ошибках

Выбранный диапазон

Имя файла F:\PNV_3CDs\CD1\PNV_CD1.wav

Пиковый уровень 100.0 %
Качество диапазона 99.9 %
CRC теста 5996465D
CRC копии 5996465D
Копирование... OK

Ошибок не произошло

Конец отчёта
Exact Audio Copy V0.99 prebeta 5 from 4. May 2009

Отчёт EAC об извлечении, выполненном 31. января 2010, 21:21

Various / Песни нашего века CD2

Дисковод: Optiarc DVD RW AD-5200S Adapter: 2 ID: 1

Режим чтения : Достоверность
Использование точного потока : Да
Отключение кэша аудио : Да
Использование указателей C2 : Нет

Коррекция смещения при чтении : 48
Способность читать области Lead-in и Lead-out : Нет
Заполнение пропущенных сэмплов тишиной : Да
Удаление блоков с тишиной в начале и конце : Нет
При вычислениях CRC использовались нулевые сэмплы : Да
Интерфейс : Встроенный Win32-интерфейс для Win NT/2000

Выходной формат : Пользовательский кодировщик
Выбранный битрейт : 128 kBit/s
Качество : Высокий
Добавление ID3-тэга : Нет
Утилита сжатия : C:\Program Files (x86)\FLAC\flac.exe
Дополнительные параметры : -8 -V %s

TOC извлечённого CD

Трек | Старт | Длительность | Начальный сектор | Конечный сектор
---------------------------------------------------------------------
1 | 0:00.00 | 2:05.00 | 0 | 9374
2 | 2:05.00 | 2:31.65 | 9375 | 20764
3 | 4:36.65 | 3:15.50 | 20765 | 35439
4 | 7:52.40 | 2:20.00 | 35440 | 45939
5 | 10:12.40 | 1:49.07 | 45940 | 54121
6 | 12:01.47 | 2:45.00 | 54122 | 66496
7 | 14:46.47 | 2:24.53 | 66497 | 77349
8 | 17:11.25 | 2:05.49 | 77350 | 86773
9 | 19:16.74 | 2:53.54 | 86774 | 99802
10 | 22:10.53 | 2:27.41 | 99803 | 110868
11 | 24:38.19 | 2:45.69 | 110869 | 123312
12 | 27:24.13 | 2:14.48 | 123313 | 133410
13 | 29:38.61 | 1:59.28 | 133411 | 142363
14 | 31:38.14 | 4:10.16 | 142364 | 161129
15 | 35:48.30 | 2:29.68 | 161130 | 172372
16 | 38:18.23 | 3:35.00 | 172373 | 188497
17 | 41:53.23 | 2:37.30 | 188498 | 200302
18 | 44:30.53 | 3:01.41 | 200303 | 213918
19 | 47:32.19 | 2:12.58 | 213919 | 223876

Характеристики диапазона извлечения и сообщения об ошибках

Выбранный диапазон

Имя файла F:\PNV_3CDs\CD2\PNV_CD2.wav

Пиковый уровень 100.0 %
Качество диапазона 99.9 %
CRC теста DDA70124
CRC копии 5563A4DF
Копирование... OK

Ошибок не произошло

Конец отчёта
Exact Audio Copy V0.99 prebeta 5 from 4. May 2009

Отчёт EAC об извлечении, выполненном 31. января 2010, 22:18

Various Artists / Песни нашего века CD3

Дисковод: Optiarc DVD RW AD-5200S Adapter: 2 ID: 1

Режим чтения : Достоверность
Использование точного потока : Да
Отключение кэша аудио : Да
Использование указателей C2 : Нет

Коррекция смещения при чтении : 48
Способность читать области Lead-in и Lead-out : Нет
Заполнение пропущенных сэмплов тишиной : Да
Удаление блоков с тишиной в начале и конце : Нет
При вычислениях CRC использовались нулевые сэмплы : Да
Интерфейс : Встроенный Win32-интерфейс для Win NT/2000

Выходной формат : Пользовательский кодировщик
Выбранный битрейт : 128 kBit/s
Качество : Высокий
Добавление ID3-тэга : Нет
Утилита сжатия : C:\Program Files (x86)\FLAC\flac.exe
Дополнительные параметры : -8 -V %s

TOC извлечённого CD

Трек | Старт | Длительность | Начальный сектор | Конечный сектор
---------------------------------------------------------------------
1 | 0:00.00 | 2:29.69 | 0 | 11243
2 | 2:29.69 | 3:11.27 | 11244 | 25595
3 | 5:41.21 | 3:13.24 | 25596 | 40094
4 | 8:54.45 | 3:03.27 | 40095 | 53846
5 | 11:57.72 | 2:55.09 | 53847 | 66980
6 | 14:53.06 | 3:14.21 | 66981 | 81551
7 | 18:07.27 | 2:32.27 | 81552 | 92978
8 | 20:39.54 | 2:44.51 | 92979 | 105329
9 | 23:24.30 | 2:24.60 | 105330 | 116189
10 | 25:49.15 | 1:49.42 | 116190 | 124406
11 | 27:38.57 | 2:39.30 | 124407 | 136361
12 | 30:18.12 | 2:40.30 | 136362 | 148391
13 | 32:58.42 | 2:45.24 | 148392 | 160790
14 | 35:43.66 | 3:55.00 | 160791 | 178415
15 | 39:38.66 | 2:39.00 | 178416 | 190340
16 | 42:17.66 | 2:31.51 | 190341 | 201716
17 | 44:49.42 | 1:48.30 | 201717 | 209846
18 | 46:37.72 | 2:54.46 | 209847 | 222942

Характеристики диапазона извлечения и сообщения об ошибках

Выбранный диапазон

Имя файла F:\PNV_3CDs\CD3\PNV_CD3.wav

Пиковый уровень 98.8 %
Качество диапазона 100.0 %
CRC теста 7531E647
CRC копии 7531E647
Копирование... OK

Ошибок не произошло

Конец отчёта
http://unionpeer.org/forum/viewtopic.php?t=544510
Exact Audio Copy V0.99 prebeta 3 from 28. July 2007

EAC extraction logfile from 9. December 2007, 16:28

Песни нашего века / P.S. Постскриптум

Used drive : Optiarc DVD RW AD-7170A Adapter: 0 ID: 0

Read mode : Secure
Utilize accurate stream : Yes
Defeat audio cache : Yes
Make use of C2 pointers : No

Read offset correction : 48
Overread into Lead-In and Lead-Out : No
Fill up missing offset samples with silence : Yes
Delete leading and trailing silent blocks : No
Null samples used in CRC calculations : Yes
Used interface : Installed external ASPI interface

Used output format : Internal WAV Routines
Sample format : 44.100 Hz; 16 Bit; Stereo

TOC of the extracted CD

Track | Start | Length | Start sector | End sector
---------------------------------------------------------
1 | 0:00.00 | 3:07.28 | 0 | 14052
2 | 3:07.28 | 3:04.52 | 14053 | 27904
3 | 6:12.05 | 4:45.68 | 27905 | 49347
4 | 10:57.73 | 2:37.29 | 49348 | 61151
5 | 13:35.27 | 2:53.37 | 61152 | 74163
6 | 16:28.64 | 3:20.03 | 74164 | 89166
7 | 19:48.67 | 2:50.74 | 89167 | 101990
8 | 22:39.66 | 3:23.60 | 101991 | 117275
9 | 26:03.51 | 2:45.70 | 117276 | 129720
10 | 28:49.46 | 2:01.42 | 129721 | 138837
11 | 30:51.13 | 3:58.21 | 138838 | 156708
12 | 34:49.34 | 2:50.67 | 156709 | 169525
13 | 37:40.26 | 3:11.59 | 169526 | 183909
14 | 40:52.10 | 2:46.36 | 183910 | 196395

Range status and errors

Selected range

Filename F:\MUSIC_SOURCES\Песни нашего века - P.S. Постскриптум\Песни нашего века - P.S. Постскриптум.wav

Peak level 100.0 %
Range quality 100.0 %
Copy CRC BE1038E3
Copy OK

No errors occurred

End of status report
Exact Audio Copy V0.99 prebeta 3 from 28. July 2007

EAC extraction logfile from 9. December 2007, 16:14

Песни Нашего Века / Песни Булата Окуджавы

Used drive : Optiarc DVD RW AD-7170A Adapter: 0 ID: 0

Read mode : Secure
Utilize accurate stream : Yes
Defeat audio cache : Yes
Make use of C2 pointers : No

Read offset correction : 48
Overread into Lead-In and Lead-Out : No
Fill up missing offset samples with silence : Yes
Delete leading and trailing silent blocks : No
Null samples used in CRC calculations : Yes
Used interface : Installed external ASPI interface

Used output format : Internal WAV Routines
Sample format : 44.100 Hz; 16 Bit; Stereo

TOC of the extracted CD

Track | Start | Length | Start sector | End sector
---------------------------------------------------------
1 | 0:00.00 | 3:19.17 | 0 | 14941
2 | 3:19.17 | 2:04.57 | 14942 | 24298
3 | 5:23.74 | 3:01.74 | 24299 | 37947
4 | 8:25.73 | 2:03.39 | 37948 | 47211
5 | 10:29.37 | 1:44.38 | 47212 | 55049
6 | 12:14.00 | 2:36.30 | 55050 | 66779
7 | 14:50.30 | 2:40.50 | 66780 | 78829
8 | 17:31.05 | 3:11.44 | 78830 | 93198
9 | 20:42.49 | 2:58.65 | 93199 | 106613
10 | 23:41.39 | 2:44.68 | 106614 | 118981
11 | 26:26.32 | 2:03.59 | 118982 | 128265
12 | 28:30.16 | 2:38.59 | 128266 | 140174
13 | 31:09.00 | 4:46.52 | 140175 | 161676
14 | 35:55.52 | 2:08.46 | 161677 | 171322
15 | 38:04.23 | 2:47.33 | 171323 | 183880
16 | 40:51.56 | 2:09.50 | 183881 | 193605
17 | 43:01.31 | 1:45.57 | 193606 | 201537

Range status and errors

Selected range

Filename F:\MUSIC_SOURCES\Песни нашего века. Окуджава\Песни Нашего Века - Песни Булата Окуджавы.wav

Peak level 100.0 %
Range quality 100.0 %
Copy CRC 5B3E0E63
Copy OK

No errors occurred

End of status report
Exact Audio Copy V0.99 prebeta 3 from 28. July 2007

EAC extraction logfile from 9. December 2007, 2:09

Участники проекта / Песни нашего века. Юрий Визбор.

Used drive : Optiarc DVD RW AD-7170A Adapter: 0 ID: 0

Read mode : Secure
Utilize accurate stream : Yes
Defeat audio cache : Yes
Make use of C2 pointers : No

Read offset correction : 48
Overread into Lead-In and Lead-Out : No
Fill up missing offset samples with silence : Yes
Delete leading and trailing silent blocks : No
Null samples used in CRC calculations : Yes
Used interface : Installed external ASPI interface

Used output format : Internal WAV Routines
Sample format : 44.100 Hz; 16 Bit; Stereo

TOC of the extracted CD

Track | Start | Length | Start sector | End sector
---------------------------------------------------------
1 | 0:00.00 | 1:49.00 | 0 | 8174
2 | 1:49.00 | 3:04.00 | 8175 | 21974
3 | 4:53.00 | 3:09.00 | 21975 | 36149
4 | 8:02.00 | 2:30.00 | 36150 | 47399
5 | 10:32.00 | 2:36.00 | 47400 | 59099
6 | 13:08.00 | 2:25.00 | 59100 | 69974
7 | 15:33.00 | 2:44.00 | 69975 | 82274
8 | 18:17.00 | 2:53.00 | 82275 | 95249
9 | 21:10.00 | 4:14.00 | 95250 | 114299
10 | 25:24.00 | 2:50.00 | 114300 | 127049
11 | 28:14.00 | 2:18.00 | 127050 | 137399
12 | 30:32.00 | 2:19.00 | 137400 | 147824
13 | 32:51.00 | 2:57.00 | 147825 | 161099
14 | 35:48.00 | 3:02.00 | 161100 | 174749
15 | 38:50.00 | 4:10.00 | 174750 | 193499
16 | 43:00.00 | 2:36.00 | 193500 | 205199
17 | 45:36.00 | 2:27.00 | 205200 | 216224

Range status and errors

Selected range

Filename F:\MUSIC_SOURCES\Песни нашего века. Визбор\Участники проекта - Песни нашего века. Юрий Визбор..wav

Peak level 100.0 %
Range quality 99.9 %
Copy CRC A339BCB1
Copy OK

No errors occurred

End of status report
http://unionpeer.org/forum/viewtopic.php?t=1169749
Exact Audio Copy V0.99 prebeta 3 from 28. July 2007

Отчёт EAC об извлечении, выполненном 13. октября 2008, 20:42

Барды / Песни Нашего Века. В. Берковский

Дисковод: ASUS DRW-1814BLT Adapter: 4 ID: 0

Режим чтения : Достоверность
Использование точного потока : Да
Отключение кэша аудио : Да
Использование указателей C2 : Нет

Коррекция смещения при чтении : 6
Способность читать области Lead-in и Lead-out : Нет
Заполнение пропущенных сэмплов тишиной : Да
Удаление блоков с тишиной в начале и конце : Нет
При вычислениях CRC использовались нулевые сэмплы : Нет
Интерфейс : Установленный внешний ASPI-интерфейс

Выходной формат : Внутренние WAV-операции
Формат сэмплов : 44.100 Гц; 16 бит; стерео

TOC извлечённого CD

Трек | Старт | Длительность | Начальный сектор | Конечный сектор
---------------------------------------------------------------------
1 | 0:00.00 | 1:57.31 | 0 | 8805
2 | 1:57.31 | 2:41.14 | 8806 | 20894
3 | 4:38.45 | 3:12.24 | 20895 | 35318
4 | 7:50.69 | 3:05.47 | 35319 | 49240
5 | 10:56.41 | 2:11.27 | 49241 | 59092
6 | 13:07.68 | 2:07.11 | 59093 | 68628
7 | 15:15.04 | 2:55.70 | 68629 | 81823
8 | 18:10.74 | 2:44.30 | 81824 | 94153
9 | 20:55.29 | 3:52.70 | 94154 | 111623
10 | 24:48.24 | 2:44.56 | 111624 | 123979
11 | 27:33.05 | 4:19.64 | 123980 | 143468
12 | 31:52.69 | 2:30.71 | 143469 | 154789
13 | 34:23.65 | 2:44.29 | 154790 | 167118
14 | 37:08.19 | 4:33.34 | 167119 | 187627
15 | 41:41.53 | 4:15.29 | 187628 | 206781
16 | 45:57.07 | 2:37.49 | 206782 | 218605
17 | 48:34.56 | 2:48.05 | 218606 | 231210
18 | 51:22.61 | 2:14.71 | 231211 | 241331
19 | 53:37.57 | 2:12.05 | 241332 | 251236

Характеристики диапазона извлечения и сообщения об ошибках

Выбранный диапазон

Имя файла C:\My upload\Pesni_veka_Berkovsky\Барды - Песни Нашего Века. В. Берковский.wav

Пиковый уровень 96.6 %
Качество диапазона 100.0 %
CRC копии 8C2E3899
Копирование... OK

Ошибок не произошло

Конец отчёта
http://unionpeer.org/forum/viewtopic.php?t=1114151
Exact Audio Copy V0.99 prebeta 3 from 28. July 2007

Отчёт EAC об извлечении, выполненном 17. сентября 2008, 1:43

Various / Песни нашего века - В.Высоцкий

Дисковод: ASUS DRW-1814BLT Adapter: 4 ID: 0

Режим чтения : Достоверность
Использование точного потока : Да
Отключение кэша аудио : Да
Использование указателей C2 : Нет

Коррекция смещения при чтении : 6
Способность читать области Lead-in и Lead-out : Нет
Заполнение пропущенных сэмплов тишиной : Да
Удаление блоков с тишиной в начале и конце : Нет
При вычислениях CRC использовались нулевые сэмплы : Нет
Интерфейс : Установленный внешний ASPI-интерфейс

Выходной формат : Внутренние WAV-операции
Формат сэмплов : 44.100 Гц; 16 бит; стерео

TOC извлечённого CD

Трек | Старт | Длительность | Начальный сектор | Конечный сектор
---------------------------------------------------------------------
1 | 0:00.00 | 3:28.16 | 0 | 15615
2 | 3:28.16 | 2:44.03 | 15616 | 27918
3 | 6:12.19 | 1:50.42 | 27919 | 36210
4 | 8:02.61 | 2:17.71 | 36211 | 46556
5 | 10:20.57 | 3:17.53 | 46557 | 61384
6 | 13:38.35 | 3:16.48 | 61385 | 76132
7 | 16:55.08 | 2:23.19 | 76133 | 86876
8 | 19:18.27 | 3:09.36 | 86877 | 101087
9 | 22:27.63 | 3:06.07 | 101088 | 115044
10 | 25:33.70 | 3:04.40 | 115045 | 128884
11 | 28:38.35 | 2:52.29 | 128885 | 141813
12 | 31:30.64 | 2:25.18 | 141814 | 152706
13 | 33:56.07 | 2:49.06 | 152707 | 165387
14 | 36:45.13 | 2:19.58 | 165388 | 175870
15 | 39:04.71 | 2:33.23 | 175871 | 187368
16 | 41:38.19 | 4:56.02 | 187369 | 209570

Характеристики диапазона извлечения и сообщения об ошибках

Выбранный диапазон

Имя файла C:\My upload\Pesni_veka_Visotsky\Pesni_veka_Visotsky.wav

Пиковый уровень 100.0 %
Качество диапазона 100.0 %
CRC копии 03121C61
Копирование... OK

Ошибок не произошло

Конец отчёта
http://unionpeer.org/forum/viewtopic.php?t=4155310
Exact Audio Copy V1.0 beta 3 from 29. August 2011

Отчёт EAC об извлечении, выполненном 27. августа 2012, 12:16

Песни нашего века / Песни нашего века-9. Александр Городницкий

Дисковод: Optiarc DVD RW AD-7260S Adapter: 3 ID: 1

Режим чтения : Достоверность
Использование точного потока : Да
Отключение кэша аудио : Да
Использование указателей C2 : Нет

Коррекция смещения при чтении : 48
Способность читать области Lead-in и Lead-out : Нет
Заполнение пропущенных сэмплов тишиной : Да
Удаление блоков с тишиной в начале и конце : Нет
При вычислениях CRC использовались нулевые сэмплы : Да
Интерфейс : Встроенный Win32-интерфейс для Win NT/2000
Обработка зазоров : Добавлено к предыдущему треку

Выходной формат : Пользовательский кодировщик
Выбранный битрейт : 128 kBit/s
Качество : Высокий
Добавление ID3-тега : Нет
Утилита сжатия : c:\Program Files\Exact Audio Copy\Flac\flac.exe
Дополнительные параметры : -V -8 -T "Genre=%genre%" -T "Artist=%artist%" -T "Title=%title%" -T "Album=%albumtitle%" -T "Date=%year%" -T "Tracknumber=%tracknr%" -T "Comment=%comment%" %source%

TOC извлечённого CD

Трек | Старт | Длительность | Начальный сектор | Конечный сектор
---------------------------------------------------------------------
1 | 0:00.00 | 2:12.29 | 0 | 9928
2 | 2:12.29 | 2:50.15 | 9929 | 22693
3 | 5:02.44 | 2:23.58 | 22694 | 33476
4 | 7:26.27 | 1:35.07 | 33477 | 40608
5 | 9:01.34 | 3:13.45 | 40609 | 55128
6 | 12:15.04 | 2:38.20 | 55129 | 66998
7 | 14:53.24 | 2:46.64 | 66999 | 79512
8 | 17:40.13 | 2:39.10 | 79513 | 91447
9 | 20:19.23 | 3:06.30 | 91448 | 105427
10 | 23:25.53 | 0:57.71 | 105428 | 109773
11 | 24:23.49 | 2:54.61 | 109774 | 122884
12 | 27:18.35 | 2:43.27 | 122885 | 135136
13 | 30:01.62 | 3:41.69 | 135137 | 151780
14 | 33:43.56 | 2:03.36 | 151781 | 161041
15 | 35:47.17 | 2:22.02 | 161042 | 171693
16 | 38:09.19 | 2:17.12 | 171694 | 181980
17 | 40:26.31 | 3:08.16 | 181981 | 196096
18 | 43:34.47 | 2:24.74 | 196097 | 206970
19 | 45:59.46 | 1:54.45 | 206971 | 215565
20 | 47:54.16 | 2:00.71 | 215566 | 224636

Трек 1

Имя файла D:\New\PNV-9\01 - На материк.wav

Длина предзазора 0:00:02.00

Пиковый уровень 99.9 %
Скорость извлечения 2.1 X
Качество трека 100.0 %
CRC теста B02664B4
CRC копии B02664B4
Копирование... OK

Трек 2

Имя файла D:\New\PNV-9\02 - Ленинградская.wav

Длина предзазора 0:00:02.00

Пиковый уровень 99.9 %
Скорость извлечения 2.4 X
Качество трека 100.0 %
CRC теста FFC45291
CRC копии FFC45291
Копирование... OK

Трек 3

Имя файла D:\New\PNV-9\03 - Чистые пруды.wav

Длина предзазора 0:00:02.00

Пиковый уровень 99.9 %
Скорость извлечения 2.0 X
Качество трека 99.9 %
CRC теста B6EF0E1B
CRC копии B6EF0E1B
Копирование... OK

Трек 4

Имя файла D:\New\PNV-9\04 - Итака (стих).wav

Длина предзазора 0:00:02.00

Пиковый уровень 71.2 %
Скорость извлечения 2.3 X
Качество трека 100.0 %
CRC теста 21C0E551
CRC копии 21C0E551
Копирование... OK

Трек 5

Имя файла D:\New\PNV-9\05 - Геркулесовы столбы.wav

Пиковый уровень 99.9 %
Скорость извлечения 2.9 X
Качество трека 100.0 %
CRC теста 47CEF083
CRC копии 47CEF083
Копирование... OK

Трек 6

Имя файла D:\New\PNV-9\06 - Моряк, покрепче вяжи узлы.wav

Длина предзазора 0:00:02.00

Пиковый уровень 99.9 %
Скорость извлечения 2.9 X
Качество трека 100.0 %
CRC теста 996C979B
CRC копии 996C979B
Копирование... OK

Трек 7

Имя файла D:\New\PNV-9\07 - Деревянные города.wav

Длина предзазора 0:00:02.00

Пиковый уровень 99.9 %
Скорость извлечения 3.0 X
Качество трека 100.0 %
CRC теста AF475ED3
CRC копии AF475ED3
Копирование... OK

Трек 8

Имя файла D:\New\PNV-9\08 - Жена французского посла.wav

Длина предзазора 0:00:02.00

Пиковый уровень 99.9 %
Скорость извлечения 3.2 X
Качество трека 100.0 %
CRC теста A646E600
CRC копии A646E600
Копирование... OK

Трек 9

Имя файла D:\New\PNV-9\09 - Система Декарта.wav

Длина предзазора 0:00:02.00

Пиковый уровень 99.9 %
Скорость извлечения 3.4 X
Качество трека 100.0 %
CRC теста 717A6A71
CRC копии 717A6A71
Копирование... OK

Трек 10

Имя файла D:\New\PNV-9\10 - Любите родину (стих).wav

Длина предзазора 0:00:02.00

Пиковый уровень 71.2 %
Скорость извлечения 2.5 X
Качество трека 100.0 %
CRC теста F404A815
CRC копии F404A815
Копирование... OK

Трек 11

Имя файла D:\New\PNV-9\11 - Над Канадой.wav

Пиковый уровень 99.9 %
Скорость извлечения 3.5 X
Качество трека 100.0 %
CRC теста BC236CD2
CRC копии BC236CD2
Копирование... OK

Трек 12

Имя файла D:\New\PNV-9\12 - Паруса ''Крузенштерна''.wav

Длина предзазора 0:00:02.00

Пиковый уровень 99.9 %
Скорость извлечения 3.0 X
Качество трека 99.9 %
CRC теста C3D79155
CRC копии C3D79155
Копирование... OK

Трек 13

Имя файла D:\New\PNV-9\13 - Снег.wav

Длина предзазора 0:00:02.00

Пиковый уровень 100.0 %
Скорость извлечения 3.9 X
Качество трека 100.0 %
CRC теста DC5F39AE
CRC копии DC5F39AE
Копирование... OK

Трек 14

Имя файла D:\New\PNV-9\14 - Песня полярных летчиков.wav

Длина предзазора 0:00:02.00

Пиковый уровень 100.0 %
Скорость извлечения 2.9 X
Качество трека 99.9 %
CRC теста 3B9BA5C9
CRC копии 3B9BA5C9
Копирование... OK

Трек 15

Имя файла D:\New\PNV-9\15 - Пиратская.wav

Длина предзазора 0:00:02.00

Пиковый уровень 99.9 %
Скорость извлечения 3.7 X
Качество трека 100.0 %
CRC теста 15E6994F
CRC копии 15E6994F
Копирование... OK

Трек 16

Имя файла D:\New\PNV-9\16 - Перекаты.wav

Длина предзазора 0:00:02.00

Пиковый уровень 100.0 %
Скорость извлечения 3.9 X
Качество трека 100.0 %
CRC теста CC00BF75
CRC копии CC00BF75
Копирование... OK

Трек 17

Имя файла D:\New\PNV-9\17 - Донской монастрырь.wav

Длина предзазора 0:00:02.00

Пиковый уровень 99.9 %
Скорость извлечения 3.6 X
Качество трека 99.9 %
CRC теста 8324995A
CRC копии 8324995A
Копирование... OK

Трек 18

Имя файла D:\New\PNV-9\18 - Ах, не ревнуй.wav

Длина предзазора 0:00:02.00

Пиковый уровень 99.9 %
Скорость извлечения 4.0 X
Качество трека 100.0 %
CRC теста 975677D4
CRC копии 975677D4
Копирование... OK

Трек 19

Имя файла D:\New\PNV-9\19 - Определение дома (стих).wav

Длина предзазора 0:00:02.00

Пиковый уровень 73.2 %
Скорость извлечения 3.9 X
Качество трека 100.0 %
CRC теста F5D86520
CRC копии F5D86520
Копирование... OK

Трек 20

Имя файла D:\New\PNV-9\20 - Атланты.wav

Пиковый уровень 100.0 %
Скорость извлечения 4.0 X
Качество трека 100.0 %
CRC теста 4321E0ED
CRC копии 4321E0ED
Копирование... OK

Ошибок не произошло

Конец отчёта
Минусовка диска "Песни нашего века. Часть первая" в формате mp3
1-01 Ваше благородие... (2:59)
1-02 За туманом (2:26)
1-03 На далёкой Амазонке (2:15)
1-04 Песня полярных лётчиков (2:04)
1-05 Снег (3:42)
1-06 Весеннее танго (2:37)
1-07 Не бродяги, не пропойцы (2:10)
1-08 Под музыку Вивальди (2:45)
1-09 Атланты (2:02)
1-10 Александра (3:40)
1-11 Надя-Наденька (2:05)
1-12 Ночная дорога (4:15)
1-13 Перекаты (2:17)
1-14 Домбайский вальс (2:30)
1-15 А всё кончается (2:14)
1-16 Пароходик (2:15)
1-17 Чёрное море (2:22)
1-18 До свидания, дорогие (2:36)
1-19 Милая моя (2:56)


Трекер:  [ 02-Янв-2013 14:00 ]

  

Скачать .torrent

Размер .torrent файла 43 KB


Размер: 2.73 GB
Хэш (hash) релиза: 9141b775632c680ee93ec032dc28d43bc34a9aa9

Еще никто не оставлял запись к записи скачать торрент Песни нашего века . Будь первым!

!Обратная связь