Скачать через торрент музыку PEZ - Para Las Almas sensibles 2CD - 2005, APE бесплатно без регистрации torrent

Если у вас наблюдаются проблемы со скриншотами, переходом по ссылками, скачиванием торрентов - проблемы в блокировщике рекламы AdBlock. #хорошегоДня!


Статистика раздачи
Размер:  892 MB   |    Зарегистрирован:  4 года 9 месяцев   |    .torrent скачан:  18 раз   |   
Раздают:  1  
   
Загрузка...
 
Автор Сообщение

Galfimbul

avatar Galfimbul


PEZ / Para Las Almas sensibles 2CD

Жанр: Crossover Prog / Progressive Rock
Страна-производитель диска: Argentina
Год издания: 2005
Издатель (лейбл): Azione Artigianale
Номер по каталогу: AZAR 012
Страна: Argentina
Аудиокодек: APE (*.ape)
Тип рипа: image+.cue
Битрейт аудио: lossless
Продолжительность: 02:13:22
Источник (релизер): домашние закрома
Наличие сканов в содержимом раздачи: да
01- Para las almas sensibles
02- Desde el viento en la montana hasta la espuma del mar
03- Introduccion declaracion adivinanza
04- Espiritu inquieto
05- Sus alas no vuelan, ya no puede volar
06- Vientodestino en vidamar
07- La estetica del resentimiento
08- Aun
09- Caminar
10- Cae y nada pasa
11- Maldicion
12- Y cuando ya no quede ni un hombre en este lugar
13- Miedo
14- Haciendo real el sueno imposible
15- Respeto
Exact Audio Copy V1.0 beta 3 from 29. August 2011

Отчёт EAC об извлечении, выполненном 10. декабря 2012, 12:17

Pez / Para las almas sensibles

Дисковод: ASUS SDRW-08D1S-U Adapter: 1 ID: 0

Режим чтения : Достоверность
Использование точного потока : Да
Отключение кэша аудио : Да
Использование указателей C2 : Нет

Коррекция смещения при чтении : 103
Способность читать области Lead-in и Lead-out : Нет
Заполнение пропущенных сэмплов тишиной : Да
Удаление блоков с тишиной в начале и конце : Нет
При вычислениях CRC использовались нулевые сэмплы : Да
Интерфейс : Встроенный Win32-интерфейс для Win NT/2000

Выходной формат : Пользовательский кодировщик
Выбранный битрейт : 1024 kBit/s
Качество : Высокий
Добавление ID3-тега : Нет
Утилита сжатия : C:\Program Files\Exact Audio Copy\Monkey's Audio\MAC.exe
Дополнительные параметры : %source% %dest% -c3000

TOC извлечённого CD

Трек | Старт | Длительность | Начальный сектор | Конечный сектор
---------------------------------------------------------------------
1 | 0:00.00 | 4:41.19 | 0 | 21093
2 | 4:41.19 | 3:48.09 | 21094 | 38202
3 | 8:29.28 | 4:04.21 | 38203 | 56523
4 | 12:33.49 | 5:17.15 | 56524 | 80313
5 | 17:50.64 | 2:55.03 | 80314 | 93441
6 | 20:45.67 | 2:43.73 | 93442 | 105739
7 | 23:29.65 | 4:20.04 | 105740 | 125243
8 | 27:49.69 | 2:48.32 | 125244 | 137875
9 | 30:38.26 | 2:48.04 | 137876 | 150479
10 | 33:26.30 | 3:07.49 | 150480 | 164553
11 | 36:34.04 | 5:40.43 | 164554 | 190096
12 | 42:14.47 | 7:37.57 | 190097 | 224428
13 | 49:52.29 | 6:36.65 | 224429 | 254193
14 | 56:29.19 | 3:20.47 | 254194 | 269240
15 | 59:49.66 | 5:27.09 | 269241 | 293774

Характеристики диапазона извлечения и сообщения об ошибках

Выбранный диапазон

Имя файла H:\!!!-МОИ РАЗДАЧИ-!!!\CD - новые\PEZ (2005) - Para Las Almas Sensibles 2CD\CD-1\Pez - Para las almas sensibles.wav

Пиковый уровень 100.0 %
Скорость извлечения 2.2 X
Качество диапазона 100.0 %
CRC теста A8CFDF6A
CRC копии A8CFDF6A
Копирование... OK

Ошибок не произошло

Конец отчёта

---- CUETools DB Plugin V2.1.3

[CTDB TOCID: p1FLtHI7u_ZtHfJVJ4.WijBJblI-] disk not present in database, Submit result: p1FLtHI7u_ZtHfJVJ4.WijBJblI- has been uploaded

==== Контрольная сумма отчёта A901DC5BC7AAE5BF68850F827942FFE335411BD85E23C3AC377DCBDDC9829E07 ====
AUDIOCHECKER v2.0 beta (build 457) - by Dester - <a href="mailto:opdester@freemail.hu" class="postLink">opdester@freemail.hu</a>
~~~~~~~~~~~~~~~~~~~~~~~~~~~~~~~~~~
-=== НЕ РЕДАКТИРУЙТЕ ЭТОТ ФАЙЛ! ===-

Путь: ...\CD-1

01 -=- Pez - Para las almas sensibles.ape -=- CDDA (100%)

46509892
01- Phantom Power
02- Por siempre
03- Despierto a un tiempo de luz
04- Rompo tu piel de asno
05- Nubes toman formas tontas
06- Campos de inconsciencia
07- Aprender, comprender, facultarse, darse cuenta
08- Sol, un fantasma en la ciudad
09- Siesta
10- Buda
11- Queseaelvientoelquenferme
12- No mi corazon coraza
13- El cantor
14- Caballo loco
Exact Audio Copy V1.0 beta 3 from 29. August 2011

Отчёт EAC об извлечении, выполненном 10. декабря 2012, 13:24

Pez / Para las almas sensibles

Дисковод: ASUS SDRW-08D1S-U Adapter: 1 ID: 0

Режим чтения : Достоверность
Использование точного потока : Да
Отключение кэша аудио : Да
Использование указателей C2 : Нет

Коррекция смещения при чтении : 103
Способность читать области Lead-in и Lead-out : Нет
Заполнение пропущенных сэмплов тишиной : Да
Удаление блоков с тишиной в начале и конце : Нет
При вычислениях CRC использовались нулевые сэмплы : Да
Интерфейс : Встроенный Win32-интерфейс для Win NT/2000

Выходной формат : Пользовательский кодировщик
Выбранный битрейт : 1024 kBit/s
Качество : Высокий
Добавление ID3-тега : Нет
Утилита сжатия : C:\Program Files\Exact Audio Copy\Monkey's Audio\MAC.exe
Дополнительные параметры : %source% %dest% -c3000

TOC извлечённого CD

Трек | Старт | Длительность | Начальный сектор | Конечный сектор
---------------------------------------------------------------------
1 | 0:00.00 | 3:08.11 | 0 | 14110
2 | 3:08.11 | 4:35.58 | 14111 | 34793
3 | 7:43.69 | 5:13.05 | 34794 | 58273
4 | 12:56.74 | 3:19.50 | 58274 | 73248
5 | 16:16.49 | 4:13.08 | 73249 | 92231
6 | 20:29.57 | 2:56.11 | 92232 | 105442
7 | 23:25.68 | 5:33.66 | 105443 | 130483
8 | 28:59.59 | 3:34.10 | 130484 | 146543
9 | 32:33.69 | 2:48.66 | 146544 | 159209
10 | 35:22.60 | 12:28.25 | 159210 | 215334
11 | 47:51.10 | 4:07.26 | 215335 | 233885
12 | 51:58.36 | 2:38.61 | 233886 | 245796
13 | 54:37.22 | 4:54.64 | 245797 | 267910
14 | 59:32.11 | 8:33.54 | 267911 | 306439

Характеристики диапазона извлечения и сообщения об ошибках

Выбранный диапазон

Имя файла H:\!!!-МОИ РАЗДАЧИ-!!!\CD - новые\PEZ (2005) - Para Las Almas Sensibles 2CD\CD-2\Pez - Para las almas sensibles.wav

Пиковый уровень 100.0 %
Скорость извлечения 2.2 X
Качество диапазона 100.0 %
CRC теста 1493BE65
CRC копии 1493BE65
Копирование... OK

Ошибок не произошло

Конец отчёта

---- CUETools DB Plugin V2.1.3

[CTDB TOCID: prP364i4FXX4c0S2iXyPsBSCj68-] disk not present in database, Submit result: prP364i4FXX4c0S2iXyPsBSCj68- has been uploaded

==== Контрольная сумма отчёта 32D36ED673DEC25E0C1BC8BBDE72237A5208ABFFA2FCE70672991AC1E8D4F759 ====
AUDIOCHECKER v2.0 beta (build 457) - by Dester - <a href="mailto:opdester@freemail.hu" class="postLink">opdester@freemail.hu</a>
~~~~~~~~~~~~~~~~~~~~~~~~~~~~~~~~~~
-=== НЕ РЕДАКТИРУЙТЕ ЭТОТ ФАЙЛ! ===-

Путь: ...\CD-2

01 -=- Pez - Para las almas sensibles.ape -=- CDDA (100%)

46509892
Доп. информация: Всем любителям PEZ(а) предлагается двойной концертник, имеющий, кстати, самый высокий рейтинг, из всех Пезов, на прог архивах (4,57). Откровенно говоря, я не в восторге от прослушенного, хотя, второй диск мне понравился гораздо больше первого, наверное не моё это, но фанаты наверняка найдутся. Так что "...в добрый путь, друзья, в добрый путь..." (М.В.)
Pez was formed in December 1993 by Ariel Minimal on Guitar and Voice, together with the Barbieri brothers (Poli on drums and Alez on bass). The project is a hard, experimental Rock trio that started to play on the Buenos Aires circuit in 1994. In October 1994 they recorded their first work called Cabeza released on the label Discos Milagrosos which was received with great reviews by the press.
In September 1995 the band changed its formation with Franco Salvador taking charge of the drums and Iris Auteri of the bass. In February 1996 they record their second Album, Quemado, which received exceptional reviews by the media. In this work the group started to show a change vocation that would define their different albums, incorporating a variety of textures and styles, including tango (they recorded a version of Astor Piazzolla's "Muralla China") bossa nova, progressive rock and psychedelia. To do this they recurred to different guest musicians that added different timbres and instruments to the trio. Presenting this album the band started to intensify their live presentations along with their media followings.In September 1996 Ariel Minimal was called by Los Fabulosos Cadillacs to be part of the group as their guitarist. This news brought great repercussions in the rock press generating greater attention on Pez's continuity. This year also meant the incorporation of Fosforo on the bass, and they recorded a version of The Clash's "I'm not Down" for the album Buenos Aires City Rockers - Tributo a The Clash (with Gaston Vandam as second guitar). During this period the band toured all over Argentina along with Los Fabulosos Cadillacs, which collaborated to showcase their music in different places outside of Buenos Aires.
During June 1998 the group, now no longer tied with it's former label, decided to face their third production independently, and recorded an album called Pez. The music changed again, this time it was a fast and heavy style of the trio that approached punk rock songs in an elaborate manner. This album was presented in Buenos Aires and they performed in the Buenos Aires Vivo festival for over 60.000 people. This album was, again, well received by the most important media like Rolling Stone, Madhouse and Los Inrockuptibles magazines, and newspapers like Clarin, La Nacion and Pagina/12 among others, receiving in some cases the best qualifications granted by these media.
Releases information:
Recorded live in La Trastienda and N/D Ateneo, Buenos Aires in 2004/2005
Ariel Minimal: vocals, electric and classical guitars
Franco Salvador: drums and vocals
Fosforo: electric and acoustic basses, vocals
Pepo Limeres : electric piano
Ernesto Romeo: a lot of electronic stuff with an endless number of buttons, keys and switches


Трекер:  [ 28-Дек-2012 16:39 ]

  

Скачать .torrent

Размер .torrent файла 19 KB


Размер: 892 MB
Хэш (hash) релиза: 4fc6b744467e10e9b1e4b24a74dbd4e648477670

Еще никто не оставлял запись к записи скачать торрент PEZ - Para Las Almas sensibles 2CD - 2005, APE . Будь первым!

!Обратная связь