Скачать через торрент музыку Roy Orbison - Im Still In Love With You бесплатно без регистрации torrent

Если у вас наблюдаются проблемы со скриншотами, переходом по ссылками, скачиванием торрентов - проблемы в блокировщике рекламы AdBlock. #хорошегоДня!


Статистика раздачи
Размер:  194 MB   |    Зарегистрирован:  4 года 10 месяцев   |    .torrent скачан:  22 раза   |   
Раздают:  1  
   
Загрузка...
 
Автор Сообщение

Galfimbul

avatar Galfimbul


Roy Orbison
I'm Still In Love With You

.



.

Жанр: Classic Rock, Vocal | Страна: USA
Дата выпуска альбома / диска: 1976 / 2002 | Производитель диска: Spectrum Music, UK
Аудио кодек: FLAC | Тип рипа: image+.cue | Битрейт аудио: lossless

Формат: Studio Album

Источник (релизер) : собственный диск

Продолжительность: 32:29

.~ TRACKLiST ~

01. Pledging My Love (2:24)
02. Rainbow Love (2:26)
03. Heartache (3:08)
04. Still (2:35)
05. Circle (2:40)
06. All I Need Is Time (3:28)
07. Spanish Nights (2:33)
08. It's Lonely (2:49)
09. Cryning Time (2:47)
10. Hung Up On You (3:26)
11. Sweet Mama Blues (4:13)

.
Exact Audio Copy V0.99 prebeta 4 from 23. January 2008

Отчёт EAC об извлечении, выполненном 15. декабря 2012, 10:44

Roy Orbison / I'm Still In Love With You

Дисковод: HL-DT-STDVDRAM GE20NU10 Adapter: 2 ID: 0

Режим чтения : ДостоверностьИспользование точного потока : ДаОтключение кэша аудио : ДаИспользование указателей C2 : Нет

Коррекция смещения при чтении : 667Способность читать области Lead-in и Lead-out : НетЗаполнение пропущенных сэмплов тишиной : ДаУдаление блоков с тишиной в начале и конце : НетПри вычислениях CRC использовались нулевые сэмплы : ДаИнтерфейс : Встроенный Win32-интерфейс для Win NT/2000

Выходной формат : Внутренние WAV-операцииФормат сэмплов : 44.100 Гц; 16 бит; стерео

TOC извлечённого CD

Трек | Старт | Длительность | Начальный сектор | Конечный сектор --------------------------------------------------------------------- 1 | 0:00.00 | 2:24.41 | 0 | 10840 2 | 2:24.41 | 2:26.71 | 10841 | 21861 3 | 4:51.37 | 3:08.64 | 21862 | 36025 4 | 8:00.26 | 2:35.29 | 36026 | 47679 5 | 10:35.55 | 2:40.34 | 47680 | 59713 6 | 13:16.14 | 3:28.52 | 59714 | 75365 7 | 16:44.66 | 2:33.06 | 75366 | 86846 8 | 19:17.72 | 2:49.33 | 86847 | 99554 9 | 22:07.30 | 2:47.40 | 99555 | 112119 10 | 24:54.70 | 3:26.65 | 112120 | 127634 11 | 28:21.60 | 4:13.39 | 127635 | 146648

Характеристики диапазона извлечения и сообщения об ошибках

Выбранный диапазон

Имя файла F:\FAITH\Roy Orbison - I'm Still In Love With You.wav

Пиковый уровень 92.9 % Качество диапазона 100.0 % CRC теста 7857204D CRC копии 7857204D Копирование... OK

Ошибок не произошло

AccurateRip: сводка

Трек 1 точное извлечение (доверие 2) [1A087FC5]Трек 2 точное извлечение (доверие 2) [9B4125EA]Трек 3 точное извлечение (доверие 2) [F32C6C89]Трек 4 точное извлечение (доверие 2) [3037DEFA]Трек 5 точное извлечение (доверие 2) [7D60ED21]Трек 6 точное извлечение (доверие 2) [58711B7D]Трек 7 точное извлечение (доверие 2) [67506B30]Трек 8 точное извлечение (доверие 2) [E4797BAE]Трек 9 точное извлечение (доверие 2) [9399EBA7]Трек 10 точное извлечение (доверие 2) [46D9EC94]Трек 11 точное извлечение (доверие 2) [E4549C0E]

Все треки извлечены точно

Конец отчёта
.Сидирую до первых 10-ти скачавших. Далее раздача поддерживается силами скачавших.
Скачали сами - дайте скачать другим. .

Трекер:  [ 28-Дек-2012 16:39 ]

  

Скачать .torrent

Размер .torrent файла 16 KB


Размер: 194 MB
Хэш (hash) релиза: 44ab200f9c9d495ef4cf17f946f951ee249c0936

Еще никто не оставлял запись к записи скачать торрент Roy Orbison - Im Still In Love With You . Будь первым!

!Обратная связь