Скачать через торрент музыку The Platters - Billboard Hits U.S.A. - 198?, APE бесплатно без регистрации torrent

Если у вас наблюдаются проблемы со скриншотами, переходом по ссылками, скачиванием торрентов - проблемы в блокировщике рекламы AdBlock. #хорошегоДня!


Статистика раздачи
Размер:  190 MB   |    Зарегистрирован:  4 года 7 месяцев   |    .torrent скачан:  28 раз   |   
Раздают:  1  
   
Загрузка...
 
Автор Сообщение

Galfimbul

avatar Galfimbul


The Platters / Billboard Hits U.S.A.

Жанр: Pop-Music
Страна-производитель диска: Canada
Год издания: 198?
Издатель (лейбл): Thecodisk
Номер по каталогу: B-0042
Страна: USA
Аудиокодек: APE (*.ape)
Тип рипа: image+.cue
Битрейт аудио: lossless
Продолжительность: 0:32:33
Источник (релизер): Собственный релиз
Наличие сканов в содержимом раздачи: нет
Треклист:
1.Only you
2.Smoke gets in your eyes
3.The great pretender
4.My prayer
5.You'll never know
6.Sixteen tons
7.My dream
8.The magic touch
9.Twilight time
10.Harbor lightd
11.Red sails in the sunset
12.Sleepy lagoon
Exact Audio Copy V0.99 prebeta 5 from 4. May 2009

Отчёт EAC об извлечении, выполненном 9. января 2008, 3:53

Platters / Billboard Hits USA

Дисковод: TSSTcorpCDDVDW TS-L633M Adapter: 1 ID: 0

Режим чтения : ДостоверностьИспользование точного потока : ДаОтключение кэша аудио : ДаИспользование указателей C2 : Нет

Коррекция смещения при чтении : 6Способность читать области Lead-in и Lead-out : НетЗаполнение пропущенных сэмплов тишиной : ДаУдаление блоков с тишиной в начале и конце : НетПри вычислениях CRC использовались нулевые сэмплы : НетИнтерфейс : Встроенный Win32-интерфейс для Win NT/2000

Выходной формат : Внутренние WAV-операцииФормат сэмплов : 44.100 Гц; 16 бит; стерео

TOC извлечённого CD

Трек | Старт | Длительность | Начальный сектор | Конечный сектор --------------------------------------------------------------------- 1 | 0:00.32 | 2:41.10 | 32 | 12116 2 | 2:41.42 | 2:44.18 | 12117 | 24434 3 | 5:25.60 | 2:27.60 | 24435 | 35519 4 | 7:53.45 | 2:47.67 | 35520 | 48111 5 | 10:41.37 | 2:44.65 | 48112 | 60476 6 | 13:26.27 | 2:39.68 | 60477 | 72469 7 | 16:06.20 | 2:42.72 | 72470 | 84691 8 | 18:49.17 | 2:32.25 | 84692 | 96116 9 | 21:21.42 | 2:49.28 | 96117 | 108819 10 | 24:10.70 | 3:15.72 | 108820 | 123516 11 | 27:26.67 | 2:26.45 | 123517 | 134511 12 | 29:53.37 | 2:39.53 | 134512 | 146489

Характеристики диапазона извлечения и сообщения об ошибках

Выбранный диапазон

Имя файла C:\Users\Mishany\Documents\Platters - Billboard Hits USA.(Canada)\Platters - Billboard Hits USA.wav

Пиковый уровень 100.0 % Качество диапазона 99.9 % CRC теста 55FE5526 CRC копии E3A7A99F Копирование... OK

Ошибок не произошло

AccurateRip: сводка

Трек 1 нет в базе данныхТрек 2 нет в базе данныхТрек 3 нет в базе данныхТрек 4 нет в базе данныхТрек 5 нет в базе данныхТрек 6 нет в базе данныхТрек 7 нет в базе данныхТрек 8 нет в базе данныхТрек 9 нет в базе данныхТрек 10 нет в базе данныхТрек 11 нет в базе данныхТрек 12 нет в базе данных

Ни одного трека нет в базе AccurateRip

Конец отчёта
REM GENRE PopREM DISCID A507A10CREM COMMENT "ExactAudioCopy v0.99pb5"PERFORMER "Platters"TITLE "Billboard Hits USA"FILE "Platters - Billboard Hits USA.ape" WAVE TRACK 01 AUDIO TITLE "Only you" PERFORMER "Platters" INDEX 00 00:00:00 INDEX 01 00:00:32 TRACK 02 AUDIO TITLE "Smoke gets in your eyes" PERFORMER "Platters" INDEX 00 02:35:65 INDEX 01 02:41:42 TRACK 03 AUDIO TITLE "The great pretender" PERFORMER "Platters" INDEX 00 05:19:70 INDEX 01 05:25:60 TRACK 04 AUDIO TITLE "My prayer" PERFORMER "Platters" INDEX 00 07:47:45 INDEX 01 07:53:45 TRACK 05 AUDIO TITLE "You'll never know" PERFORMER "Platters" INDEX 00 10:36:42 INDEX 01 10:41:37 TRACK 06 AUDIO TITLE "Sixteen tons" PERFORMER "Platters" INDEX 00 13:21:25 INDEX 01 13:26:27 TRACK 07 AUDIO TITLE "My dream" PERFORMER "Platters" INDEX 00 16:01:17 INDEX 01 16:06:20 TRACK 08 AUDIO TITLE "The magic touch" PERFORMER "Platters" INDEX 00 18:42:72 INDEX 01 18:49:17 TRACK 09 AUDIO TITLE "Twilight time" PERFORMER "Platters" INDEX 00 21:14:62 INDEX 01 21:21:42 TRACK 10 AUDIO TITLE "Harbor lightd" PERFORMER "Platters" INDEX 00 24:06:02 INDEX 01 24:10:70 TRACK 11 AUDIO TITLE "Red sails in the sunset" PERFORMER "Platters" INDEX 00 27:20:65 INDEX 01 27:26:67 TRACK 12 AUDIO TITLE "Sleepy lagoon" PERFORMER "Platters" INDEX 00 29:48:50 INDEX 01 29:53:37


Трекер:  [ 28-Дек-2012 16:39 ]

  

Скачать .torrent

Размер .torrent файла 15 KB


Размер: 190 MB
Хэш (hash) релиза: 98cb23b75e3c388873bb9c6b85bd1825b440dde1

Еще никто не оставлял запись к записи скачать торрент The Platters - Billboard Hits U.S.A. - 198?, APE . Будь первым!

!Обратная связь