Скачать через торрент музыку Quaser - Delta Flux - 2011, APE бесплатно без регистрации torrent

Если у вас наблюдаются проблемы со скриншотами, переходом по ссылками, скачиванием торрентов - проблемы в блокировщике рекламы AdBlock. #хорошегоДня!


Статистика раздачи
Размер:  285 MB   |    Зарегистрирован:  4 года 10 месяцев   |    .torrent скачан:  38 раз   |   
Раздают:  1  
   
Загрузка...
 
Автор Сообщение

Galfimbul

avatar Galfimbul


Quaser / Delta Flux

Жанр: Jazz Rock-Fusion / Progressive Rock
Страна-производитель диска: France
Год издания: 2011
Издатель (лейбл): Musea
Номер по каталогу: FGBG 4847.AR
Страна: Japan
Аудиокодек: APE (*.ape)
Тип рипа: image+.cue
Битрейт аудио: lossless
Продолжительность: 00:49:09
Источник (релизер): домашние закрома
Наличие сканов в содержимом раздачи: да
Треклист:

01. Wild Ocean (4:30)
02. Windmezzo (1:46)
03. Enemy God (3:59)
04. Days After (5:25)
05. Berlingia (4:10)
06. Airly Tale (4:56)
07. Poseidonia (3:17)
08. Dreamseeker (3:32)
09. Awaker (6:02)
10. Psycollapse (4:30)
11. Long Road (6:20)
Exact Audio Copy V1.0 beta 3 from 29. August 2011

Отчёт EAC об извлечении, выполненном 10. декабря 2012, 17:41

Quaser / Delta Flux

Дисковод: ASUS SDRW-08D1S-U Adapter: 1 ID: 0

Режим чтения : ДостоверностьИспользование точного потока : ДаОтключение кэша аудио : ДаИспользование указателей C2 : Нет

Коррекция смещения при чтении : 103Способность читать области Lead-in и Lead-out : НетЗаполнение пропущенных сэмплов тишиной : ДаУдаление блоков с тишиной в начале и конце : НетПри вычислениях CRC использовались нулевые сэмплы : ДаИнтерфейс : Встроенный Win32-интерфейс для Win NT/2000

Выходной формат : Пользовательский кодировщикВыбранный битрейт : 1024 kBit/sКачество : ВысокийДобавление ID3-тега : НетУтилита сжатия : C:\Program Files\Exact Audio Copy\Monkey's Audio\MAC.exeДополнительные параметры : %source% %dest% -c3000

TOC извлечённого CD

Трек | Старт | Длительность | Начальный сектор | Конечный сектор --------------------------------------------------------------------- 1 | 0:00.00 | 4:30.64 | 0 | 20313 2 | 4:30.64 | 1:47.31 | 20314 | 28369 3 | 6:18.20 | 4:03.57 | 28370 | 46651 4 | 10:22.02 | 5:29.01 | 46652 | 71327 5 | 15:51.03 | 4:14.72 | 71328 | 90449 6 | 20:06.00 | 5:00.66 | 90450 | 113015 7 | 25:06.66 | 3:21.35 | 113016 | 128125 8 | 28:28.26 | 3:36.74 | 128126 | 144399 9 | 32:05.25 | 6:06.70 | 144400 | 171919 10 | 38:12.20 | 4:34.32 | 171920 | 192501 11 | 42:46.52 | 6:20.53 | 192502 | 221054

Характеристики диапазона извлечения и сообщения об ошибках

Выбранный диапазон

Имя файла H:\!!!-МОИ РАЗДАЧИ-!!!\CD - новые\Quaser (2006-2009) - Delta Flux (2011)\Quaser - Delta Flux.wav

Пиковый уровень 100.0 % Скорость извлечения 2.0 X Качество диапазона 100.0 % CRC теста 997760A2 CRC копии 997760A2 Копирование... OK

Ошибок не произошло

Конец отчёта

---- CUETools DB Plugin V2.1.3

[CTDB TOCID: loF4cLsmFkNDjmhgEGK91._Shyk-] disk not present in database, Submit result: loF4cLsmFkNDjmhgEGK91._Shyk- has been uploaded

==== Контрольная сумма отчёта 5349194232999375AA826F9513904AAF6EA52E7D7BFB5DF5E92F9C740A86DB56 ====
AUDIOCHECKER v2.0 beta (build 457) - by Dester - <a href="mailto:opdester@freemail.hu" class="postLink">opdester@freemail.hu</a>~~~~~~~~~~~~~~~~~~~~~~~~~~~~~~~~~~-=== НЕ РЕДАКТИРУЙТЕ ЭТОТ ФАЙЛ! ===-

Путь: ...\Quaser (2006-2009) - Delta Flux (2011)

01 -=- Quaser - Delta Flux.ape -=- CDDA (100%)

158515700
QUASER was formed in 1977 as a trio in the style of EMERSON, LAKE & PALMER. They reunited in 1993 in Kobe. QUASER creates a diverse, complex progressive rock influenced by the chaos brought about by the destructive Kobe earthquake. The music features high-tension melodies and Japanese vocals with classical arrangements; alternately aggressive and gentle, with symphonic keyboards, edgy guitar, and a heavy rhythm section. They are currently recording their third album.
Japanese band QUASER was originally formed back in 1976, and was an active live unit until disbanding in the early 80's. But following a decade of inactivity the members decided to give it a second go, and have been a going concern since 1993. "Delta Flux" is their most recent production, and was released by Poseidon Records in Japan and Musea Records worldwide in 2011. Quaser's fourth full length production documents a band secure in its nature, featuring material of a fairly refined nature, generally melodic and harmonic, but with a fair degree of details for the attentive listener to savor. As far as a target audience is concerned, fans of neo progressive rock and symphonic art rock should both take the time to find out if "Delta Flux" is a production that could be to their liking. My estimated guess is that they'll appeal to any of the factions.
- Takuya Morita / vocals, keyboards
- Kazuo Katayama / drums
- Masami Katsuura / guitars
- Hiroaki Fuji / bass
Thanks to
- Tsutomu Tamura / guitars (6)
- Kouichi Korenaga / guitars (8)
- Kenichi Nagatomo / guitars (11)
- Sakko Ishino / violin (1, 4-9, 11)
Chorus: NPO'1,17 Flame of Hope' (6)


Трекер:  [ 28-Дек-2012 16:39 ]

  

Скачать .torrent

Размер .torrent файла 12 KB


Размер: 285 MB
Хэш (hash) релиза: cbd243dc7912d6bc7763e4d9132de2d58b2af13c

Еще никто не оставлял запись к записи скачать торрент Quaser - Delta Flux - 2011, APE . Будь первым!

!Обратная связь