Скачать через торрент музыку Presto Ballet - Relic of the Modern World бесплатно без регистрации torrent

Если у вас наблюдаются проблемы со скриншотами, переходом по ссылками, скачиванием торрентов - проблемы в блокировщике рекламы AdBlock. #хорошегоДня!


Статистика раздачи
Размер:  310 MB   |    Зарегистрирован:  4 года 7 месяцев   |    .torrent скачан:  24 раза   |   
Раздают:  1  
   
Загрузка...
 
Автор Сообщение

Galfimbul

avatar Galfimbul


Presto Ballet - Relic of the Modern World

Жанр: Crossover prog
Год издания диска: 2012
Издатель (лейбл): Body of Work
Catalog Nr.: No
Страна: USA
Тип рипа: image+.cue (test&copy)
Битрейт аудио: lossless
Продолжительность: 42:06
Источник: свой рип

Трэклист:

1. The Chemical Age (6:31)
2. Watching The Radio (8:41)
3. Broken Toys (5:55)
4. Prelude To Farewell (1:36)
5. Relic Of The Modern World (19:10)

Total Time: 42:06

Музыканты

Kurdt Vanderhoof - Guitars, additional Keys
Chuck Campbell- Vocals
Kerry Shacklett - Keyboards, backing vocals
Bobby Ferkovich - Bass, backing vocals
Chris G - Drums

Доп. информация: На данный момент самый свежий (пятый) релиз американской команды, полюбившейся многим своими предыдущими альбомами.
Мне сия команда очень нравится, посему поимел все их альбомы. На трекере все они имеются. Рекомендую всем, кто ещё не...
Exact Audio Copy V1.0 beta 3 from 29. August 2011

EAC extraction logfile from 24. December 2012, 20:09

Presto Ballet / Relic of the Modern World

Used drive : TEAC CD-W516EB Adapter: 0 ID: 0

Read mode : Secure
Utilize accurate stream : Yes
Defeat audio cache : Yes
Make use of C2 pointers : No

Read offset correction : 685
Overread into Lead-In and Lead-Out : No
Fill up missing offset samples with silence : Yes
Delete leading and trailing silent blocks : No
Null samples used in CRC calculations : Yes
Used interface : Native Win32 interface for Win NT & 2000

Used output format : User Defined Encoder
Selected bitrate : 1024 kBit/s
Quality : High
Add ID3 tag : Yes
Command line compressor : C:\Program Files (x86)\FLAC\flac.exe
Additional command line options : -6 -V -T "ARTIST=%artist%" -T "TITLE=%title%" -T "ALBUM=%albumtitle%" -T "DATE=%year%" -T "TRACKNUMBER=%tracknr%" -T "GENRE=%genre%" -T "COMMENT=%comment%" %source% -o %dest%

TOC of the extracted CD

Track | Start | Length | Start sector | End sector
---------------------------------------------------------
1 | 0:00.00 | 6:35.19 | 0 | 29643
2 | 6:35.19 | 8:43.29 | 29644 | 68897
3 | 15:18.48 | 5:58.66 | 68898 | 95813
4 | 21:17.39 | 1:36.57 | 95814 | 103070
5 | 22:54.21 | 19:12.00 | 103071 | 189470

Range status and errors

Selected range

Filename Y:\EAC\wurensh\Presto Ballet\Presto Ballet - Relic of the Modern World.wav

Peak level 100.0 %
Extraction speed 7.3 X
Range quality 100.0 %
Test CRC 4E6CBDF9
Copy CRC 4E6CBDF9
Copy OK

No errors occurred

AccurateRip summary

Track 1 not present in database
Track 2 not present in database
Track 3 not present in database
Track 4 not present in database
Track 5 not present in database

None of the tracks are present in the AccurateRip database

End of status report
Для любителей спектрограмм представлен скриншот именно для трека, опознанного как мпег. Зрячий, да увидит.
Коврики 300dpi в комплекте.
Progarchives info
Поздравляю всех любителей прогрессива с Рождеством и наступающим Новым Годом!!!

Трекер:  [ 28-Дек-2012 16:38 ]

  

Скачать .torrent

Размер .torrent файла 13 KB


Размер: 310 MB
Хэш (hash) релиза: 8ea485fbd80b53cf438a0abcdb690b04dc339981

Торренты, похожие на Presto Ballet - Relic of the Modern World скачать торрент

Форум Название Автор Размер S L Добавлен
Зарубежный Rock ·· (Progressive Rock) Presto Ballet - Relic Of The Modern World - 2012, MP3, 320 kbps _N_ 10120627597 MB 0 0 1349112600

20:30

1-Окт-12

Зарубежный Rock ·· (Progressive Rock) Presto Ballet - Relic Of The Modern World - 2012, MP3, 320 kbps _N_ 10069597896 MB 0 0 1349112600

20:30

1-Окт-12

Еще никто не оставлял запись к записи скачать торрент Presto Ballet - Relic of the Modern World . Будь первым!

!Обратная связь