Скачать через торрент Ещё вчера Only Yesterday бесплатно Аниме Все серии на русском torrent

Если у вас наблюдаются проблемы со скриншотами, переходом по ссылками, скачиванием торрентов - проблемы в блокировщике рекламы AdBlock. #хорошегоДня!


Статистика раздачи
Размер:  5.5 GB   |    Зарегистрирован:  4 года 9 месяцев   |    .torrent скачан:  38 раз   |   
Раздают:  1  
   
Загрузка...
 
Автор Сообщение

Galfimbul

avatar Galfimbul


Ещё вчера
Omoide Poro-poro
Год выпуска: 1991
Страна:
Жанры: романтика, драма, школа
Продолжительность: 01:58:48.
Перевод:

русские субтитры с R5 от RUSCICO
английские субтитры от Disney
Озвучка:

многоголосая с R5 от RUSCICO
одноголосая (муж.) от А. Толстоброва
Режиссер: Такахата Исао
Студия:
Описание: Во время отдыха Таеко неожиданно для себя обнаруживает, что вспоминает времена, когда она была маленькой и училась в школе в далеком 1966 году. Действие фильма постоянно скачет назад и вперед между двумя временными периодами с ностальгией и прекрасными горными пейзажами, в то время как Таеко расставляет по полочкам свои воспоминания и пытается принять трудное решение о своем будущем…

Качество: BDRip (MySilu)

Формат: MKV

Тип видео: Без хардсаба

Видео кодек: x264
Аудио кодек: AC3, DTS

Видео: MPEG4 Video (H264), 4 737 Kbps, 1280x690, 23.976 fps

Аудио 1: - DTS, 1509 Kbps, 48KHz, 2ch
Аудио 2: - AС3, 192 Kbps, 48KHz, 2ch [Многоголосая, RUSCICO]
Аудио 3: - AC3, 192 Kbps, 48KHz, 2ch [Одноголосая, А. Толстобров]

Все дорожки взяты из раздачи TolstiyMob.
General
Unique ID : 210278180848951290123809289724838751101 (0x9E321AC17BD3DC7494C68061BEAF2B7D)
Complete name : D:\Аниме\Полнометражные аниме\Only Yesterday [BDRip 720p]\Only.Yesterday.1991.Blu-ray.720p.x264.DTS.MySilu.mkv
Format : Matroska
Format version : Version 2
File size : 5.18 GiB
Duration : 1h 58mn
Overall bit rate : 6 247 Kbps
Encoded date : UTC 2012-12-23 15:15:11
Writing application : mkvmerge v5.2.0 ('I can't explain') built on Dec 18 2011 18:12:03
Writing library : libebml v1.2.3 + libmatroska v1.3.0

Video
ID : 1
Format : AVC
Format/Info : Advanced Video Codec
Format profile : <a href="mailto:High@L4.1" class="postLink">High@L4.1</a>
Format settings, CABAC : Yes
Format settings, ReFrames : 8 frames
Codec ID : V_MPEG4/ISO/AVC
Duration : 1h 58mn
Bit rate : 4 737 Kbps
Width : 1 280 pixels
Height : 690 pixels
Display aspect ratio : 1.85:1
Frame rate mode : Constant
Frame rate : 23.976 fps
Color space : YUV
Chroma subsampling : 4:2:0
Bit depth : 8 bits
Scan type : Progressive
Bits/(Pixel*Frame) : 0.224
Stream size : 3.83 GiB (74%)
Title : Only Yesterday.1991.Blu-ray.720p.x264.DTS.DD20.TriAudio.MySilu
Writing library : x264 core 129 r2230 1cffe9f
Encoding settings : cabac=1 / ref=8 / deblock=1:-2:-2 / analyse=0x3:0x133 / me=umh / subme=9 / psy=1 / psy_rd=1.20:0.20 / mixed_ref=1 / me_range=16 / chroma_me=1 / trellis=2 / 8x8dct=1 / cqm=0 / deadzone=21,11 / fast_pskip=1 / chroma_qp_offset=-3 / threads=6 / lookahead_threads=1 / sliced_threads=0 / nr=0 / decimate=0 / interlaced=0 / bluray_compat=0 / constrained_intra=0 / bframes=3 / b_pyramid=2 / b_adapt=2 / b_bias=0 / direct=3 / weightb=1 / open_gop=0 / weightp=2 / keyint=240 / keyint_min=1 / scenecut=40 / intra_refresh=0 / rc_lookahead=60 / rc=2pass / mbtree=0 / bitrate=4737 / ratetol=1.0 / qcomp=0.60 / qpmin=10 / qpmax=51 / qpstep=4 / cplxblur=20.0 / qblur=0.5 / vbv_maxrate=38000 / vbv_bufsize=38000 / nal_hrd=none / ip_ratio=1.40 / pb_ratio=1.30 / aq=1:1.00
Language : Japanese
Default : Yes
Forced : No

Audio
ID : 2
Format : DTS
Format/Info : Digital Theater Systems
Mode : 16
Format settings, Endianness : Big
Codec ID : A_DTS
Duration : 1h 58mn
Bit rate mode : Constant
Bit rate : 1 509 Kbps
Channel(s) : 2 channels
Channel positions : Front: L R
Sampling rate : 48.0 KHz
Bit depth : 24 bits
Compression mode : Lossy
Delay relative to video : 8ms
Stream size : 1.25 GiB (24%)
Language : Japanese
Default : Yes
Forced : No


Трекер:  [ 25-Дек-2012 08:15 ]

  

Скачать .torrent

Размер .torrent файла 15 KB


Размер: 5.5 GB
Хэш (hash) релиза: 6b5168ad8b78786183385968e8992af47a43bf55
Подписка на обновления:

Еще никто не оставлял запись к записи скачать торрент Ещё вчера Only Yesterday . Будь первым!

!Обратная связь