Скачать через торрент музыку Strontium 90 бесплатно без регистрации torrent

Если у вас наблюдаются проблемы со скриншотами, переходом по ссылками, скачиванием торрентов - проблемы в блокировщике рекламы AdBlock. #хорошегоДня!


Статистика раздачи
Размер:  381 MB   |    Зарегистрирован:  4 года 10 месяцев   |    .torrent скачан:  22 раза   |   
Раздают:  1  
   
Загрузка...
 
Автор Сообщение

Galfimbul

avatar Galfimbul


Strontium 90[pre Police]/ Police Academy

Жанр: Rock
Страна-производитель диска: EU
Год издания: 1997[1977]
Издатель (лейбл): Pangea ARK21
Номер по каталогу: 153 906-2
Страна: UK
Аудиокодек: FLAC (*.flac)
Тип рипа: tracks+.cue
Битрейт аудио: lossless
Продолжительность: 00:43:12
Источник (релизер): свой диск
Наличие сканов в содержимом раздачи: да
Треклист:
. 01. Visions Of The Night - 02:57
. 02. New World Blues - 04:01
. 03. 3 O'Clock Shot (Live) - 05:18
. 04. Lady Of Delight - 04:26
. 05. Electron Romance - 05:07
. 06. Every Little Thing She Does Is Magic - 03:20
. 07. Towers Tumbled - 05:31
. 08. Electron Romance (Live) - 07:57
. 09. Lady Of Delight (Live) - 04:32
Exact Audio Copy V1.0 beta 3 from 29. August 2011

Отчёт EAC об извлечении, выполненном 22. декабря 2012, 20:17

Strontium 90 / Police Academy

Дисковод: ASUS DRW-24B3ST Adapter: 4 ID: 0

Режим чтения : ДостоверностьИспользование точного потока : ДаОтключение кэша аудио : ДаИспользование указателей C2 : Нет

Коррекция смещения при чтении : 6Способность читать области Lead-in и Lead-out : НетЗаполнение пропущенных сэмплов тишиной : ДаУдаление блоков с тишиной в начале и конце : НетПри вычислениях CRC использовались нулевые сэмплы : ДаИнтерфейс : Встроенный Win32-интерфейс для Win NT/2000Обработка зазоров : Добавлено к предыдущему треку

Выходной формат : Пользовательский кодировщикВыбранный битрейт : 128 kBit/sКачество : ВысокийДобавление ID3-тега : НетУтилита сжатия : C:\Program Files\Exact Audio Copy\Flac\flac.exeДополнительные параметры : -V -8 -T "Date=%year%" -T "Genre=%genre%" %source%

TOC извлечённого CD

Трек | Старт | Длительность | Начальный сектор | Конечный сектор --------------------------------------------------------------------- 1 | 0:00.00 | 2:57.05 | 0 | 13279 2 | 2:57.05 | 4:01.67 | 13280 | 31421 3 | 6:58.72 | 5:18.58 | 31422 | 55329 4 | 12:17.55 | 4:26.47 | 55330 | 75326 5 | 16:44.27 | 5:07.38 | 75327 | 98389 6 | 21:51.65 | 3:20.20 | 98390 | 113409 7 | 25:12.10 | 5:31.10 | 113410 | 138244 8 | 30:43.20 | 7:57.25 | 138245 | 174044 9 | 38:40.45 | 4:32.30 | 174045 | 194474

Трек 1

Имя файла C:\Documents and Settings\Sergei\Мои документы\Моя музыка\EAC\01. Visions Of The Night.wav

Длина предзазора 0:00:02.00

Пиковый уровень 95.1 % Скорость извлечения 4.8 X Качество трека 100.0 % CRC теста F070C14A CRC копии F070C14A Точность не определена (достоверность 11) [5ADE1354], AccurateRip вернул [AF7CD456] (AR v2) Копирование... OK

Трек 2

Имя файла C:\Documents and Settings\Sergei\Мои документы\Моя музыка\EAC\02. New World Blues.wav

Длина предзазора 0:00:00.60

Пиковый уровень 95.1 % Скорость извлечения 5.6 X Качество трека 100.0 % CRC теста 6FC69882 CRC копии 6FC69882 Точность не определена (достоверность 11) [D149F98C], AccurateRip вернул [FC5AB5CD] (AR v2) Копирование... OK

Трек 3

Имя файла C:\Documents and Settings\Sergei\Мои документы\Моя музыка\EAC\03. 3 O'Clock Shot (Live).wav

Длина предзазора 0:00:01.57

Пиковый уровень 95.1 % Скорость извлечения 6.4 X Качество трека 100.0 % CRC теста F96ADCBB CRC копии F96ADCBB Точность не определена (достоверность 11) [9ED1D68B], AccurateRip вернул [519AB321] (AR v2) Копирование... OK

Трек 4

Имя файла C:\Documents and Settings\Sergei\Мои документы\Моя музыка\EAC\04. Lady Of Delight.wav

Длина предзазора 0:00:00.48

Пиковый уровень 95.1 % Скорость извлечения 6.8 X Качество трека 100.0 % CRC теста 9AB66F22 CRC копии 9AB66F22 Точность не определена (достоверность 11) [286BF2EA], AccurateRip вернул [985C1073] (AR v2) Копирование... OK

Трек 5

Имя файла C:\Documents and Settings\Sergei\Мои документы\Моя музыка\EAC\05. Electron Romance.wav

Длина предзазора 0:00:00.10

Пиковый уровень 94.2 % Скорость извлечения 7.3 X Качество трека 100.0 % CRC теста 96976E28 CRC копии 96976E28 Точность не определена (достоверность 11) [7282D5F7], AccurateRip вернул [4638A467] (AR v2) Копирование... OK

Трек 6

Имя файла C:\Documents and Settings\Sergei\Мои документы\Моя музыка\EAC\06. Every Little Thing She Does Is Magic.wav

Длина предзазора 0:00:01.25

Пиковый уровень 95.1 % Скорость извлечения 7.3 X Качество трека 100.0 % CRC теста 18F5C95F CRC копии 18F5C95F Точность не определена (достоверность 11) [64DDBD22], AccurateRip вернул [C624F540] (AR v2) Копирование... OK

Трек 7

Имя файла C:\Documents and Settings\Sergei\Мои документы\Моя музыка\EAC\07. Towers Tumbled.wav

Длина предзазора 0:00:01.18

Пиковый уровень 95.1 % Скорость извлечения 8.3 X Качество трека 100.0 % CRC теста E35B5369 CRC копии E35B5369 Точность не определена (достоверность 11) [953B8093], AccurateRip вернул [9056074A] (AR v2) Копирование... OK

Трек 8

Имя файла C:\Documents and Settings\Sergei\Мои документы\Моя музыка\EAC\08. Electron Romance (Live).wav

Длина предзазора 0:00:00.10

Пиковый уровень 96.5 % Скорость извлечения 9.1 X Качество трека 100.0 % CRC теста 2D17515F CRC копии 2D17515F Точность не определена (достоверность 11) [631AD3C0], AccurateRip вернул [3D83E6CD] (AR v2) Копирование... OK

Трек 9

Имя файла C:\Documents and Settings\Sergei\Мои документы\Моя музыка\EAC\09. Lady Of Delight (Live).wav

Пиковый уровень 95.6 % Скорость извлечения 9.2 X Качество трека 100.0 % CRC теста 74FD4505 CRC копии 74FD4505 Точность не определена (достоверность 10) [92968183], AccurateRip вернул [261F5EBC] (AR v2) Копирование... OK

Ни один трек не прошёл проверки на точностьВ вашей базе может быть иной вариант штамповки диска

Ошибок не произошло

Конец отчёта

==== Контрольная сумма отчёта 647ED6D5FA5F8937A9A1ED7A130B71260B45917C023654B05F1CBE2082768761 ====
REM GENRE RockREM DATE 1977REM DISCID 610A2109REM COMMENT "ExactAudioCopy v1.0b3"PERFORMER "Strontium 90"TITLE "Police Academy"FILE "01. Visions Of The Night.wav" WAVE TRACK 01 AUDIO TITLE "Visions Of The Night" PERFORMER "Strontium 90" INDEX 01 00:00:00 TRACK 02 AUDIO TITLE "New World Blues" PERFORMER "Strontium 90" INDEX 00 02:56:20FILE "02. New World Blues.wav" WAVE INDEX 01 00:00:00 TRACK 03 AUDIO TITLE "3 O'Clock Shot (Live)" PERFORMER "Strontium 90" INDEX 00 04:00:10FILE "03. 3 O'Clock Shot (Live).wav" WAVE INDEX 01 00:00:00 TRACK 04 AUDIO TITLE "Lady Of Delight" PERFORMER "Strontium 90" INDEX 00 05:18:10FILE "04. Lady Of Delight.wav" WAVE INDEX 01 00:00:00 TRACK 05 AUDIO TITLE "Electron Romance" PERFORMER "Strontium 90" INDEX 00 04:26:37FILE "05. Electron Romance.wav" WAVE INDEX 01 00:00:00 TRACK 06 AUDIO TITLE "Every Little Thing She Does Is Magic" PERFORMER "Strontium 90" INDEX 00 05:06:13FILE "06. Every Little Thing She Does Is Magic.wav" WAVE INDEX 01 00:00:00 TRACK 07 AUDIO TITLE "Towers Tumbled" PERFORMER "Strontium 90" INDEX 00 03:19:02FILE "07. Towers Tumbled.wav" WAVE INDEX 01 00:00:00 TRACK 08 AUDIO TITLE "Electron Romance (Live)" PERFORMER "Strontium 90" INDEX 00 05:31:00FILE "08. Electron Romance (Live).wav" WAVE INDEX 01 00:00:00FILE "09. Lady Of Delight (Live).wav" WAVE TRACK 09 AUDIO TITLE "Lady Of Delight (Live)" PERFORMER "Strontium 90" INDEX 01 00:00:00
Andy Summers - Guitars

Stewart Copeland - Drums

Sting - Lead Vocals,Guitar(tracks 2 & 6),Bass (tracks 1,6,8,& 11)

Mike Howlett - Bass(solos on 5,7,8,& 11)


Трекер:  [ 28-Дек-2012 16:31 ]

  

Скачать .torrent

Размер .torrent файла 16 KB


Размер: 381 MB
Хэш (hash) релиза: e3fe9f2083c31f6fa2fe02693a53e212dae2d5bf

Еще никто не оставлял запись к записи скачать торрент Strontium 90 . Будь первым!

!Обратная связь