Скачать через торрент музыку Pavlovs Dog - Pampered Menial - 1976 бесплатно без регистрации torrent

Если у вас наблюдаются проблемы со скриншотами, переходом по ссылками, скачиванием торрентов - проблемы в блокировщике рекламы AdBlock. #хорошегоДня!


Статистика раздачи
Размер:  220 MB   |    Зарегистрирован:  4 года 10 месяцев   |    .torrent скачан:  26 раз   |   
Раздают:  1  
   
Загрузка...
 
Автор Сообщение

Galfimbul

avatar Galfimbul


Pavlov's Dog / Pampered Menial

Жанр: Progressive rock
Страна-производитель диска: Austria
Год издания: 1976 (1988)
Издатель (лейбл): Columbia
Номер по каталогу: CD 32480
Страна: USA
Аудиокодек: FLAC (*.flac)
Тип рипа: image+.cue
Битрейт аудио: lossless
Продолжительность: 33:53
Источник (релизер): Собственная коллекция
Наличие сканов в содержимом раздачи: да
Треклист:
1. Julia (3:10)
2. Late november (3:12)
3. Song dance (4:59)
4. Fast gun (3:04)
5. Natchez trace (3:42)
6. Theme from subway Sue (4:25)
7. Episode (4:04)
8. Preludin (1:39)
9. Of once and future kings (5:27)
Exact Audio Copy V1.0 beta 3 from 29. August 2011

Отчёт EAC об извлечении, выполненном 23. декабря 2012, 11:33

Pavlov's Dog / Pampered Menial

Дисковод: Optiarc DVD RW AD-7690H Adapter: 4 ID: 0

Режим чтения : ДостоверностьИспользование точного потока : ДаОтключение кэша аудио : ДаИспользование указателей C2 : Нет

Коррекция смещения при чтении : 48Способность читать области Lead-in и Lead-out : НетЗаполнение пропущенных сэмплов тишиной : ДаУдаление блоков с тишиной в начале и конце : НетПри вычислениях CRC использовались нулевые сэмплы : ДаИнтерфейс : Встроенный Win32-интерфейс для Win NT/2000

Выходной формат : Пользовательский кодировщикВыбранный битрейт : 1024 kBit/sКачество : ВысокийДобавление ID3-тега : ДаУтилита сжатия : C:\Program Files (x86)\Exact Audio Copy\Flac\flac.exeДополнительные параметры : -V -8 -T "Date=%year%" -T "Genre=%genre%" %source%

TOC извлечённого CD

Трек | Старт | Длительность | Начальный сектор | Конечный сектор --------------------------------------------------------------------- 1 | 0:00.00 | 3:11.50 | 0 | 14374 2 | 3:11.50 | 3:14.20 | 14375 | 28944 3 | 6:25.70 | 5:01.00 | 28945 | 51519 4 | 11:26.70 | 3:05.60 | 51520 | 65454 5 | 14:32.55 | 3:43.60 | 65455 | 82239 6 | 18:16.40 | 4:27.27 | 82240 | 102291 7 | 22:43.67 | 4:03.73 | 102292 | 120589 8 | 26:47.65 | 1:38.60 | 120590 | 127999 9 | 28:26.50 | 5:27.25 | 128000 | 152549

Характеристики диапазона извлечения и сообщения об ошибках

Выбранный диапазон

Имя файла C:\Users\Толик\Desktop\Pavlov's Dog - Pampered Menial\Pavlov's Dog - Pampered Menial.wav

Пиковый уровень 100.0 % Скорость извлечения 1.7 X Качество диапазона 100.0 % CRC теста D4291D51 CRC копии D4291D51 Копирование... OK

Ошибок не произошло

AccurateRip: сводка

Трек 1 : извлечено точно (доверие 9) [25266631] (AR v1)Трек 2 : извлечено точно (доверие 9) [2EA4DE15] (AR v1)Трек 3 : извлечено точно (доверие 9) [35D88A4F] (AR v1)Трек 4 : извлечено точно (доверие 9) [5EDD2A56] (AR v1)Трек 5 : извлечено точно (доверие 9) [F7D7B8BF] (AR v1)Трек 6 : извлечено точно (доверие 9) [EA319A85] (AR v1)Трек 7 : извлечено точно (доверие 9) [EBFBACC3] (AR v1)Трек 8 : извлечено точно (доверие 9) [0D6F4FDD] (AR v1)Трек 9 : извлечено точно (доверие 9) [2377441B] (AR v1)

Все треки извлечены точно

Конец отчёта

==== Контрольная сумма отчёта 3558E303E1E75E5D8E90DCFA5E7680739AA59665A21450C777DAFA43917DF8E4 ====
REM GENRE "Progressive Rock"REM DATE 1976REM DISCID 8B07F209REM COMMENT "ExactAudioCopy v1.0b3"CATALOG 0000000000000PERFORMER "Pavlov's Dog"TITLE "Pampered Menial"FILE "Pavlov's Dog - Pampered Menial.flac" WAVE TRACK 01 AUDIO TITLE "Julia" PERFORMER "Pavlov's Dog" INDEX 01 00:00:00 TRACK 02 AUDIO TITLE "Late November" PERFORMER "Pavlov's Dog" INDEX 00 03:09:71 INDEX 01 03:11:50 TRACK 03 AUDIO TITLE "Song Dance" PERFORMER "Pavlov's Dog" INDEX 00 06:24:29 INDEX 01 06:25:70 TRACK 04 AUDIO TITLE "Fast Gun" PERFORMER "Pavlov's Dog" INDEX 00 11:25:29 INDEX 01 11:26:70 TRACK 05 AUDIO TITLE "Natchez Trace" PERFORMER "Pavlov's Dog" INDEX 00 14:31:29 INDEX 01 14:32:55 TRACK 06 AUDIO TITLE "Theme From Subway Sue" PERFORMER "Pavlov's Dog" INDEX 00 18:14:65 INDEX 01 18:16:40 TRACK 07 AUDIO TITLE "Episode" PERFORMER "Pavlov's Dog" INDEX 00 22:42:34 INDEX 01 22:43:67 TRACK 08 AUDIO TITLE "Preludin" PERFORMER "Pavlov's Dog" INDEX 01 26:47:65 TRACK 09 AUDIO TITLE "Of Once And Future Kings" PERFORMER "Pavlov's Dog" INDEX 01 28:26:50


Трекер:  [ 28-Дек-2012 16:31 ]

  

Скачать .torrent

Размер .torrent файла 18 KB


Размер: 220 MB
Хэш (hash) релиза: 46841e693d119daaf050eb64d2fc2d6976ed0c3a

Еще никто не оставлял запись к записи скачать торрент Pavlovs Dog - Pampered Menial - 1976 . Будь первым!

!Обратная связь