Скачать через торрент музыку Rick Wakeman - The Myths and Legends of King Arthur and the Knights of the Round Table бесплатно без регистрации torrent

Если у вас наблюдаются проблемы со скриншотами, переходом по ссылками, скачиванием торрентов - проблемы в блокировщике рекламы AdBlock. #хорошегоДня!


Статистика раздачи
Размер:  287 MB   |    Зарегистрирован:  4 года 10 месяцев   |    .torrent скачан:  24 раза   |   
Раздают:  1  
   
Загрузка...
 
Автор Сообщение

Galfimbul

avatar Galfimbul


Rick Wakeman - The Myths and Legends of King Arthur and the Knights of the Round Table



Жанр: Progressive Rock
Страна-производитель диска: USA
Год издания диска: 1988
Издатель (лейбл): A&M
Номер по каталогу: CD 3230/7502132302
Страна: UK
Аудио кодек: FLAC (*.flac)
Тип рипа: image+.cue
Битрейт аудио: lossless
Продолжительность: 44:56
Источник (релизер): dafnaplus
Наличие сканов в содержимом раздачи: да
Трэклист:
01. Arthur 7:30
02. Lady Of The Lake 0:46
03. Guinevere 6:49
04. Sir Lancelot And The Black Knight 5:23
05. Merlin The Magician 8:55
06. Sir Galahad 5:52
07. The Last Battle 9:42
Exact Audio Copy V1.0 beta 3 from 29. August 2011

EAC extraction logfile from 22. December 2012, 22:58

Rick Wakeman / The Myths and Legends of King Arthur and the Knights of the Round Table (CD 3230)

Used drive : PLEXTOR DVDR PX-891SA Adapter: 1 ID: 0

Read mode : SecureUtilize accurate stream : YesDefeat audio cache : YesMake use of C2 pointers : No

Read offset correction : 6Overread into Lead-In and Lead-Out : NoFill up missing offset samples with silence : YesDelete leading and trailing silent blocks : NoNull samples used in CRC calculations : YesUsed interface : Native Win32 interface for Win NT & 2000

Used output format : User Defined EncoderSelected bitrate : 1024 kBit/sQuality : HighAdd ID3 tag : NoCommand line compressor : C:\Program Files\Exact Audio Copy\Flac\flac.exeAdditional command line options : -V -8 -T "Genre=%genre%" -T "Artist=%artist%" -T "Title=%title%" -T "Album=%albumtitle%" -T "Date=%year%" -T "Tracknumber=%tracknr%" -T "Comment=%comment%" %source%

TOC of the extracted CD

Track | Start | Length | Start sector | End sector --------------------------------------------------------- 1 | 0:00.32 | 7:29.68 | 32 | 33774 2 | 7:30.25 | 0:45.60 | 33775 | 37209 3 | 8:16.10 | 6:48.57 | 37210 | 67866 4 | 15:04.67 | 5:22.50 | 67867 | 92066 5 | 20:27.42 | 8:54.65 | 92067 | 132181 6 | 29:22.32 | 5:51.73 | 132182 | 158579 7 | 35:14.30 | 9:41.45 | 158580 | 202199

Range status and errors

Selected range

Filename H:\dafnaplus\Rick Wakeman - The Myths and Legends of King Arthur\Rick Wakeman - The Myths and Legends of King Arthur and the Knights of the Round Table (CD 3230).wav

Peak level 100.0 % Extraction speed 8.2 X Range quality 100.0 % Test CRC 6EFF7B7D Copy CRC 6EFF7B7D Copy OK

No errors occurred

AccurateRip summary

Track 1 accurately ripped (confidence 3) [9A3C5BE2] (AR v2)Track 2 accurately ripped (confidence 3) [C55B7164] (AR v2)Track 3 accurately ripped (confidence 3) [A64ED4A5] (AR v2)Track 4 accurately ripped (confidence 3) [A5E04911] (AR v2)Track 5 accurately ripped (confidence 3) [0902F678] (AR v2)Track 6 accurately ripped (confidence 3) [17A803F2] (AR v2)Track 7 accurately ripped (confidence 3) [14A3BBA2] (AR v2)

All tracks accurately ripped

End of status report

==== Log checksum 13375C4A9CDA885BE87EBEBFE6E480AC1213627F39DBEA4BE33F4953643D41F2 ====


Трекер:  [ 28-Дек-2012 16:31 ]

  

Скачать .torrent

Размер .torrent файла 12 KB


Размер: 287 MB
Хэш (hash) релиза: a41bf13b6058d4d9e2b4c23900f9ce2cc5a3889a

Торренты, похожие на Rick Wakeman - The Myths and Legends of King Arthur and the Knights of the Round Table скачать торрент

Форум Название Автор Размер S L Добавлен
Rосk | Mеtаl | Аltеrnаtivе, Рunk, Indереndеnt (mр3) ·· (Progressive Rock) Rick Wakeman - The Myths And Legends of King Arthur and the Knights of the Round Table - 2016, MP3, 320 kbps Galfimbul 205316827196 MB 0 0 1466339299

15:28

19-Июн-16

Еще никто не оставлял запись к записи скачать торрент Rick Wakeman - The Myths and Legends of King Arthur and the Knights of the Round Table . Будь первым!

!Обратная связь