Скачать через торрент музыку Eloy - The Tides Return Forever бесплатно без регистрации torrent

Если у вас наблюдаются проблемы со скриншотами, переходом по ссылками, скачиванием торрентов - проблемы в блокировщике рекламы AdBlock. #хорошегоДня!


Статистика раздачи
Размер:  404 MB   |    Зарегистрирован:  4 года 7 месяцев   |    .torrent скачан:  36 раз   |   
Раздают:  1  
   
Загрузка...
 
Автор Сообщение

Galfimbul

avatar Galfimbul


Eloy - The Tides Return Forever

Жанр: Psychedelic / Space Rock
Год выпуска диска: 1994, 2011
Страна: Germany
Производитель диска: Artist Station Records / ASR 094
Аудио кодек: FLAC
Тип рипа: image+.cue
Битрейт аудио: lossless
Продолжительность: 54:10
Наличие сканов в содержимом раздачи:

Трэклист:
01. The Day Of Crimson Skies (5:02)
02. Fatal Illusions (9:22)
03. Childhood Memories (6:22)
04. Generation Of Innocence (6:10)
05. The Tides Return Forever (6:40)
06. The Last In Line (4:01)
07. Company Of Angels (9:45)
+ + + + + + + + + + + + +
08. The Tides Return Forever (Remix 2011) (6:41)

Состав:
- Frank Bornemann / vocals, guitars
- Michael Gerlach / keyboards, vocals
- Klaus-Peter Matziol / bass
- Nico Barretta / drums
- Peter Beckett / vocals (5-6-7-8)
- Tom Jackson / vocals (5-6-7-8)
- Bettina Lux / backing vocals (6)
- Steve Mann / acoustic guitar solo (5-8)
- Dirk Michaelis / acoustic guitar (3)
- Suzanne Schätzle / backing vocals (6)
- Jocelyn B. Smith / vocals (5-8)
- Miriam Stockley / vocals (7)
- Ralf Vornberger / acoustic guitar (5-8)

Доп. информация: http://www.progarchives.com/artist.asp?id=95
Exact Audio Copy V1.0 beta 1 from 15. November 2010

EAC extraction logfile from 4. November 2012, 15:58

Eloy / The tides return forever

Used drive : HL-DT-STDVDRAM GH20NS10 Adapter: 0 ID: 1

Read mode : SecureUtilize accurate stream : YesDefeat audio cache : YesMake use of C2 pointers : No

Read offset correction : 667Overread into Lead-In and Lead-Out : NoFill up missing offset samples with silence : YesDelete leading and trailing silent blocks : NoNull samples used in CRC calculations : YesUsed interface : Installed external ASPI interface

Used output format : User Defined EncoderSelected bitrate : 768 kBit/sQuality : HighAdd ID3 tag : NoCommand line compressor : C:\Program Files\Exact Audio Copy\FLAC\FLAC.EXEAdditional command line options : -6 -V -T "ARTIST=%a" -T "TITLE=%t" -T "ALBUM=%g" -T "DATE=%y" -T "TRACKNUMBER=%n" -T "GENRE=%m" -T "COMMENT=%e" %j--picture="%i"%j %s -o %d

TOC of the extracted CD

Track | Start | Length | Start sector | End sector --------------------------------------------------------- 1 | 0:00.00 | 5:02.40 | 0 | 22689 2 | 5:02.40 | 9:19.57 | 22690 | 64671 3 | 14:22.22 | 6:23.38 | 64672 | 93434 4 | 20:45.60 | 6:12.72 | 93435 | 121406 5 | 26:58.57 | 6:42.12 | 121407 | 151568 6 | 33:40.69 | 4:03.12 | 151569 | 169805 7 | 37:44.06 | 9:45.07 | 169806 | 213687 8 | 47:29.13 | 6:41.25 | 213688 | 243787

Range status and errors

Selected range

Filename H:\ 123\Eloy - The tides return forever.wav

Peak level 99.9 % Extraction speed 0.9 X Range quality 100.0 % Copy CRC 384E0E01 Copy OK

No errors occurred

AccurateRip summary

Track 1 not present in databaseTrack 2 not present in databaseTrack 3 not present in databaseTrack 4 not present in databaseTrack 5 not present in databaseTrack 6 not present in databaseTrack 7 not present in databaseTrack 8 not present in database

None of the tracks are present in the AccurateRip database

End of status report
REM GENRE "Progressive Rock"REM DATE 1994REM DISCID 580CB208REM COMMENT "ExactAudioCopy v1.0b1"PERFORMER "Eloy"TITLE "The tides return forever"FILE "Eloy - The tides return forever.flac" WAVE TRACK 01 AUDIO TITLE "The day of crimson skies" PERFORMER "Eloy" INDEX 01 00:00:00 TRACK 02 AUDIO TITLE "Fatal illusions" PERFORMER "Eloy" INDEX 00 05:02:28 INDEX 01 05:02:40 TRACK 03 AUDIO TITLE "Childhood memories" PERFORMER "Eloy" INDEX 00 14:21:68 INDEX 01 14:22:22 TRACK 04 AUDIO TITLE "Generation of innocence" PERFORMER "Eloy" INDEX 00 20:44:47 INDEX 01 20:45:60 TRACK 05 AUDIO TITLE "The tides return forever" PERFORMER "Eloy" INDEX 00 26:56:58 INDEX 01 26:58:57 TRACK 06 AUDIO TITLE "The last in line" PERFORMER "Eloy" INDEX 00 33:38:68 INDEX 01 33:40:69 TRACK 07 AUDIO TITLE "Company of angels" PERFORMER "Eloy" INDEX 00 37:42:07 INDEX 01 37:44:06 TRACK 08 AUDIO TITLE "The tides return forever (Remix 2011)" PERFORMER "Eloy" INDEX 00 47:27:13 INDEX 01 47:29:13
AUDIOCHECKER v1.2 - by Dester - <a href="mailto:opdester@freemail.hu" class="postLink">opdester@freemail.hu</a>~~~~~~~~~~~~~~~~~

1 -===- E:\Muzons\Eloy\Remastered\1994 - Eloy - The Tides Return Forever (2011 Remaster)\Eloy - The tides return forever.flac Extracted successfully Conclusion: This track looks like CDDA with probability 100%
источник: moole, Thunder

Трекер:  [ 28-Дек-2012 16:31 ]

  

Скачать .torrent

Размер .torrent файла 17 KB


Размер: 404 MB
Хэш (hash) релиза: 3b5e71a639d205630565ffe2e6bb6aae2ab8c11b

Еще никто не оставлял запись к записи скачать торрент Eloy - The Tides Return Forever . Будь первым!

!Обратная связь