Скачать через торрент музыку Proto - Kaw - Forth - 2011, FLAC бесплатно без регистрации torrent

Если у вас наблюдаются проблемы со скриншотами, переходом по ссылками, скачиванием торрентов - проблемы в блокировщике рекламы AdBlock. #хорошегоДня!


Статистика раздачи
Размер:  485 MB   |    Зарегистрирован:  4 года 7 месяцев   |    .torrent скачан:  21 раз   |   
Раздают:  1  
   
Загрузка...
 
Автор Сообщение

Galfimbul

avatar Galfimbul


Proto - Kaw / Forth

Жанр: Symphonic Progressive
Год издания: 2011
Издатель (лейбл): Kerygmatic Music/GrandyZine Proguсtions Inc.
Номер по каталогу: Numavox 0016
Страна: United States
Аудиокодек: FLAC (*.flac)
Тип рипа: image+.cue
Битрейт аудио: lossless
Продолжительность: 01:01:32
Источник (релизер): Диск из личной коллекции
Наличие сканов в содержимом раздачи: да
Треклист:
1. Daylight
2. Pilgrim's Wake
3. Pollex
4. Cold And Clear
5. Lay Down
6. Greek Structure Sunbeam
7. On The Air (Again)
8. One To Follow
9. Sleeping Giant
10. Things We Are Breaking
11. Utopian Dream
Exact Audio Copy V1.0 beta 3 from 29. August 2011

EAC extraction logfile from 22. September 2012, 20:54

Proto-Kaw / Forth

Used drive : HL-DT-STDVDRAM GSA-T50N Adapter: 0 ID: 1

Read mode : SecureUtilize accurate stream : YesDefeat audio cache : YesMake use of C2 pointers : No

Read offset correction : 667Overread into Lead-In and Lead-Out : NoFill up missing offset samples with silence : YesDelete leading and trailing silent blocks : NoNull samples used in CRC calculations : YesUsed interface : Native Win32 interface for Win NT & 2000

Used output format : User Defined EncoderSelected bitrate : 768 kBit/sQuality : HighAdd ID3 tag : NoCommand line compressor : C:\Program Files\Exact Audio Copy\FLAC\FLAC.EXEAdditional command line options : -8 -V %source%

TOC of the extracted CD

Track | Start | Length | Start sector | End sector --------------------------------------------------------- 1 | 0:00.00 | 4:31.18 | 0 | 20342 2 | 4:31.18 | 5:29.04 | 20343 | 45021 3 | 10:00.22 | 5:19.51 | 45022 | 68997 4 | 15:19.73 | 5:49.72 | 68998 | 95244 5 | 21:09.70 | 5:34.58 | 95245 | 120352 6 | 26:44.53 | 5:33.18 | 120353 | 145345 7 | 32:17.71 | 6:40.63 | 145346 | 175408 8 | 38:58.59 | 4:21.38 | 175409 | 195021 9 | 43:20.22 | 5:24.26 | 195022 | 219347 10 | 48:44.48 | 5:18.46 | 219348 | 243243 11 | 54:03.19 | 7:28.56 | 243244 | 276899

Range status and errors

Selected range

Filename C:\qualitymetal\riversider\Proto-Kaw - Forth.wav

Peak level 98.7 % Extraction speed 4.9 X Range quality 100.0 % Test CRC 7A82A60C Copy CRC 7A82A60C Copy OK

No errors occurred

AccurateRip summary

Track 1 accurately ripped (confidence 1) [64E6F975] (AR v1)Track 2 accurately ripped (confidence 1) [E7C10EAF] (AR v1)Track 3 accurately ripped (confidence 1) [CE8E104D] (AR v1)Track 4 accurately ripped (confidence 1) [3DD1DC05] (AR v1)Track 5 accurately ripped (confidence 1) [481E2BF3] (AR v1)Track 6 accurately ripped (confidence 1) [7E089A6A] (AR v1)Track 7 accurately ripped (confidence 1) [47162875] (AR v1)Track 8 accurately ripped (confidence 1) [BDF7B039] (AR v1)Track 9 accurately ripped (confidence 1) [9EC6F633] (AR v1)Track 10 accurately ripped (confidence 1) [90B2FF97] (AR v1)Track 11 accurately ripped (confidence 1) [F45B1AB8] (AR v1)

All tracks accurately ripped

End of status report

---- CUETools DB Plugin V2.1.4

[CTDB TOCID: TMaXTmmfu_kPhltbgrnFhjJ5xK0-] foundSubmit result: TMaXTmmfu_kPhltbgrnFhjJ5xK0- has been confirmedTrack | CTDB Status 1 | (3/3) Accurately ripped 2 | (3/3) Accurately ripped 3 | (3/3) Accurately ripped 4 | (3/3) Accurately ripped 5 | (3/3) Accurately ripped 6 | (3/3) Accurately ripped 7 | (3/3) Accurately ripped 8 | (3/3) Accurately ripped 9 | (3/3) Accurately ripped 10 | (3/3) Accurately ripped 11 | (3/3) Accurately ripped

==== Log checksum 9C5FD784F3376997EFE60CB70F366DF8D1D22541591E2E793B996A3731317884 ====
Lynn Meredith - Vocals, Narration
Kerry Livgren - Guitars, Piano, Keyboards, percussion, Background Vocals
John Bolton - Saxophones, Flute
Dan Wright - Organ, Keyboards, Percussion, Background Vocals
Craig Kew - Bass, Background Vocals
Mike Patrum - Drums
Jake Livgren - Guitars, Keyboards, Percussion, Backing Vocals


Трекер:  [ 28-Дек-2012 16:31 ]

  

Скачать .torrent

Размер .torrent файла 20 KB


Размер: 485 MB
Хэш (hash) релиза: 48b2db03ca60ef87b4d3d993f2a7e1ab71c17c8e

Еще никто не оставлял запись к записи скачать торрент Proto - Kaw - Forth - 2011, FLAC . Будь первым!

!Обратная связь