Скачать через торрент музыку Brett Garsed - Big Sky - 2002, FLAC бесплатно без регистрации torrent

Если у вас наблюдаются проблемы со скриншотами, переходом по ссылками, скачиванием торрентов - проблемы в блокировщике рекламы AdBlock. #хорошегоДня!


Статистика раздачи
Размер:  388 MB   |    Зарегистрирован:  4 года 7 месяцев   |    .torrent скачан:  28 раз   |   
Раздают:  2  
   
Загрузка...
 
Автор Сообщение

Galfimbul

avatar Galfimbul


Brett Garsed / Big Sky



Жанр: Jazz Rock / Fusion
Год издания: 2002
Издатель (лейбл): Paranormal Records
Номер по каталогу: 619093702823
Страна: USA
Аудиокодек: FLAC (*.flac)
Тип рипа: image+.cue
Битрейт аудио: lossless
Продолжительность: 1:01:44
Источник (релизер): свой рип
Наличие сканов в содержимом раздачи: нет
Треклист:
1. Undoing - 4:57
2. Trinity - 7:26
3. Brothers - 5:40
4. Drowning - 8:08
5. Fu'd Fight - 5:14
6. Breathe - 5:05
7. Got The Horn - 5:55
8. The Myth - 4:41
9. Friend Or Foe - 5:33
10. Big Sky - 8:43
Exact Audio Copy V1.0 beta 1 from 15. November 2010

EAC extraction logfile from 23. December 2012, 13:55

Brett Garsed / Big Sky (2002)

Used drive : HL-DT-STDVDRAM GSA-T50N Adapter: 0 ID: 1

Read mode : SecureUtilize accurate stream : YesDefeat audio cache : YesMake use of C2 pointers : No

Read offset correction : 667Overread into Lead-In and Lead-Out : NoFill up missing offset samples with silence : YesDelete leading and trailing silent blocks : NoNull samples used in CRC calculations : YesUsed interface : Native Win32 interface for Win NT & 2000

Used output format : User Defined EncoderSelected bitrate : 128 kBit/sQuality : HighAdd ID3 tag : NoCommand line compressor : C:\Program Files\Exact Audio Copy\Flac\flac.exeAdditional command line options : -8 -V %s

TOC of the extracted CD

Track | Start | Length | Start sector | End sector --------------------------------------------------------- 1 | 0:00.00 | 4:59.40 | 0 | 22464 2 | 4:59.40 | 7:28.12 | 22465 | 56076 3 | 12:27.52 | 5:42.07 | 56077 | 81733 4 | 18:09.59 | 8:10.63 | 81734 | 118546 5 | 26:20.47 | 5:16.61 | 118547 | 142307 6 | 31:37.33 | 5:07.08 | 142308 | 165340 7 | 36:44.41 | 5:57.05 | 165341 | 192120 8 | 42:41.46 | 4:43.21 | 192121 | 213366 9 | 47:24.67 | 5:35.64 | 213367 | 238555 10 | 53:00.56 | 8:43.62 | 238556 | 277842

Range status and errors

Selected range

Filename D:\Brett Garsed - Big Sky (2002).wav

Peak level 97.2 % Extraction speed 0.5 X Range quality 100.0 % Test CRC C670290A Copy CRC C670290A Copy OK

No errors occurred

AccurateRip summary

Track 1 not present in databaseTrack 2 not present in databaseTrack 3 not present in databaseTrack 4 not present in databaseTrack 5 not present in databaseTrack 6 not present in databaseTrack 7 not present in databaseTrack 8 not present in databaseTrack 9 not present in databaseTrack 10 not present in database

None of the tracks are present in the AccurateRip database

End of status report
Brett Garsed – guitar, engineering, mixing, production
Anastasios Panos – drums
Ric Fierabracci – bass, engineering, mixing, production
Dave Schultz – mastering
Grit Frederick – executive production


Трекер:  [ 28-Дек-2012 16:31 ]

  

Скачать .torrent

Размер .torrent файла 15 KB


Размер: 388 MB
Хэш (hash) релиза: a98dddf1db2097d2df92ba104036ade32bb61886

Еще никто не оставлял запись к записи скачать торрент Brett Garsed - Big Sky - 2002, FLAC . Будь первым!

!Обратная связь