-: One Piece: Movie 10 Strong World torrent

, , - AdBlock. #!


32.54 GB   |    :  4 7    |    .torrent :  38    |   
1  
   
...
 

Galfimbul

avatar Galfimbul


-: . .
One Piece: Strong World

: 2009
[b] DVD/Blu-ray:
27 2010
:
:
: 115 .
: , , , .
: +
:
:
: 9.5 10 (W-A) | 8.39 (191) (AniDB)| N/A (2) (AniDB tmp. rating)
( ).
. . " " . , , , . 2,5 , , . , , - . , , , . 2 ( 2,5 ) " " ( ) . . , 20 .
20 . , . . ? ... ... nsk-blackangel, World Art.
: BDRemux
:
: MKV
: Russian, ass-, [One-Piece.Ru ][/b] -
: MPEG4 Video (H264) 1920x1080 23.976fps 40.2Mbs
:

Russian: DTS, 5.1, 48 KHz, 768 kbps [SakuraNight] -
Russian: DTS, 5.1, 48 KHz, 768 kbps [Persona99] -
Japanese: Dolby TrueHD 6ch 4 692 Kbps -
Format : MatroskaFormat version : Version 4 / Version 2File size : 32.5 GiBDuration : 1h 55mnOverall bit rate mode : VariableOverall bit rate : 40.3 MbpsMovie name : One Piece Movie 10 - Strong World [BDRemux] [http://]Encoded date : UTC 2010-02-22 21:41:31Writing application : mkvmerge v5.9.0 ('On The Loose') built on Dec 9 2012 15:37:01Writing library : libebml v1.3.0 + libmatroska v1.4.0

VideoID : 1Format : AVCFormat/Info : Advanced Video CodecFormat profile : <a href="mailto:High@L4.1Format" class="postLink">High@L4.1Format</a> settings, CABAC : YesFormat settings, ReFrames : 2 framesFormat settings, GOP : M=1, N=10Codec ID : V_MPEG4/ISO/AVCDuration : 1h 55mnBit rate mode : VariableWidth : 1 920 pixelsHeight : 1 080 pixelsDisplay aspect ratio : 16:9Frame rate : 23.976 fpsColor space : YUVChroma subsampling : 4:2:0Bit depth : 8 bitsScan type : ProgressiveTitle : OriginalLanguage : JapaneseDefault : YesForced : No

Audio #1ID : 2Format : DTSFormat/Info : Digital Theater SystemsCodec ID : A_DTSDuration : 1h 55mnBit rate mode : ConstantBit rate : 755 KbpsChannel(s) : 6 channelsChannel positions : Front: L C R, Side: L R, LFESampling rate : 48.0 KHzBit depth : 24 bitsCompression mode : LossyStream size : 624 MiB (2%)Title : SakuraNight ( )Language : RussianDefault : NoForced : No

Audio #2ID : 3Format : DTSFormat/Info : Digital Theater SystemsCodec ID : A_DTSDuration : 1h 55mnBit rate mode : ConstantBit rate : 755 KbpsChannel(s) : 6 channelsChannel positions : Front: L C R, Side: L R, LFESampling rate : 48.0 KHzBit depth : 24 bitsCompression mode : LossyStream size : 624 MiB (2%)Title : Persona99Language : RussianDefault : YesForced : Yes

Audio #3ID : 4Format : TrueHDCodec ID : A_TRUEHDDuration : 1h 55mnBit rate mode : VariableMaximum bit rate : 4 692 KbpsChannel(s) : 6 channelsChannel positions : Front: L C R, Side: L R, LFESampling rate : 48.0 KHzCompression mode : LosslessTitle : OriginalLanguage : JapaneseDefault : NoForced : No

Text #1ID : 5Format : ASSCodec ID : S_TEXT/ASSCodec ID/Info : Advanced Sub Station AlphaCompression mode : LosslessTitle : One-Piece.RuLanguage : RussianDefault : NoForced : No

Text #2ID : 6Format : PGSMuxing mode : zlibCodec ID : S_HDMV/PGSCodec ID/Info : The same subtitle format used on BDs/HD-DVDsTitle : BDMVLanguage : JapaneseDefault : YesForced : No
Disc Title: [BDMV] ONE PIECE FILM STRONG WORLDDisc Size: 38 621 156 877 bytesProtection: AACSBD-Java: NoBDInfo: 0.5.8

Notes:

BDINFO HOME: Cinema Squid http://www.cinemasquid.com/blu-ray/tools/bdinfo

INCLUDES FORUMS REPORT FOR: AVS Forum Blu-ray Audio and Video Specifications Thread http://www.avsforum.com/avs-vb/showthread.php?t=1155731

********************PLAYLIST: 00000.MPLS********************

<--- BEGIN FORUMS PASTE --->

Total Video
Title Codec Length Movie Size Disc Size Bitrate Bitrate Main Audio Track Secondary Audio Track
----- ------ ------- -------------- -------------- ------- ------- ------------------ ---------------------
00000.MPLS AVC 1:55:37 36858218496 38621156877 42,50 35,13 Dolby TrueHD 5.1 3416Kbps (48kHz/24-bit)
DISC INFO:

Disc Title: [BDMV] ONE PIECE FILM STRONG WORLD
Disc Size: 38621156877 bytes
Protection: AACS
BD-Java: No
BDInfo: 0.5.8

PLAYLIST REPORT:

Name: 00000.MPLS
Length: 1:55:37.931 (h:m:s.ms)
Size: 36858218496 bytes
Total Bitrate: 42,50 Mbps

VIDEO:

Codec Bitrate Description
----- ------- -----------
MPEG-4 AVC Video 35133 kbps 1080p / 23,976 fps / 16:9 / High Profile 4.1

AUDIO:

Codec Language Bitrate Description
----- -------- ------- -----------
Dolby TrueHD Audio Japanese 3416 kbps 5.1 / 48 kHz / 3416 kbps / 24-bit (AC3 Embedded: 5.1 / 48 kHz / 640 kbps)

SUBTITLES:

Codec Language Bitrate Description
----- -------- ------- -----------
Presentation Graphics Japanese 331,043 kbps

FILES:

Name Time In Length Size Total Bitrate
---- ------- ------ ---- -------------
00000.M2TS 0:00:00.000 1:55:37.931 36858218496 42501

CHAPTERS:

Number Time In Length Avg Video Rate Max 1-Sec Rate Max 1-Sec Time Max 5-Sec Rate Max 5-Sec Time Max 10Sec Rate Max 10Sec Time Avg Frame Size Max Frame Size Max Frame Time
------ ------- ------ -------------- -------------- -------------- -------------- -------------- -------------- -------------- -------------- -------------- --------------
1 0:00:00.000 0:02:22.267 35325 kbps 58478 kbps 00:01:30.507 41357 kbps 00:01:46.397 40038 kbps 00:00:25.650 184115 bytes 774373 bytes 00:00:24.983
2 0:02:22.267 0:05:18.985 32516 kbps 61640 kbps 00:05:08.516 42340 kbps 00:06:30.348 40209 kbps 00:06:30.640 169524 bytes 781181 bytes 00:02:57.468
3 0:07:41.252 0:02:56.926 32709 kbps 54963 kbps 00:08:17.163 40761 kbps 00:10:13.487 39117 kbps 00:08:50.404 170528 bytes 776626 bytes 00:07:57.894
4 0:10:38.179 0:01:59.911 34427 kbps 58101 kbps 00:11:13.005 41977 kbps 00:11:35.486 40285 kbps 00:11:30.481 179488 bytes 781450 bytes 00:10:56.697
5 0:12:38.090 0:02:58.845 33210 kbps 53269 kbps 00:14:51.056 40430 kbps 00:13:54.375 39402 kbps 00:12:43.804 173142 bytes 780042 bytes 00:15:21.420
6 0:15:36.935 0:09:22.728 32937 kbps 56521 kbps 00:24:17.330 41612 kbps 00:15:43.525 39493 kbps 00:18:41.537 171718 bytes 782912 bytes 00:21:59.818
7 0:24:59.664 0:02:40.493 31444 kbps 50447 kbps 00:25:18.183 41365 kbps 00:25:59.766 40554 kbps 00:25:53.301 163937 bytes 783034 bytes 00:25:32.656
8 0:27:40.158 0:02:29.691 31615 kbps 64746 kbps 00:28:53.940 41420 kbps 00:27:55.382 38903 kbps 00:27:54.714 164826 bytes 782714 bytes 00:27:47.207
9 0:30:09.849 0:02:07.127 36370 kbps 50915 kbps 00:30:50.557 40421 kbps 00:30:55.854 39301 kbps 00:30:32.330 189619 bytes 772940 bytes 00:32:09.177
10 0:32:16.976 0:02:05.083 32327 kbps 54666 kbps 00:32:53.471 39401 kbps 00:32:43.127 38336 kbps 00:34:11.966 168538 bytes 781178 bytes 00:33:47.024
11 0:34:22.060 0:04:03.743 33504 kbps 48225 kbps 00:34:24.145 40182 kbps 00:36:34.901 38996 kbps 00:35:55.152 174674 bytes 781761 bytes 00:35:36.467
12 0:38:25.803 0:05:27.035 31872 kbps 59926 kbps 00:38:37.398 41798 kbps 00:41:04.461 40580 kbps 00:40:59.874 166166 bytes 783095 bytes 00:39:42.588
13 0:43:52.838 0:07:00.503 35397 kbps 54491 kbps 00:45:40.946 41985 kbps 00:45:18.382 39421 kbps 00:45:13.377 184545 bytes 783116 bytes 00:47:58.625
14 0:50:53.341 0:10:25.541 37345 kbps 55900 kbps 01:00:51.606 41593 kbps 00:58:10.570 39934 kbps 00:58:04.731 194698 bytes 779576 bytes 00:51:34.007
15 1:01:18.883 0:03:34.005 36954 kbps 53206 kbps 01:02:43.718 42841 kbps 01:02:39.881 40312 kbps 01:02:39.422 192659 bytes 773606 bytes 01:02:03.970
16 1:04:52.889 0:05:02.302 37459 kbps 53147 kbps 01:09:24.827 40155 kbps 01:05:05.401 39328 kbps 01:09:16.068 195294 bytes 782148 bytes 01:07:17.950
17 1:09:55.191 0:04:19.259 37020 kbps 47269 kbps 01:11:01.298 40522 kbps 01:12:40.898 39696 kbps 01:10:01.697 193004 bytes 780894 bytes 01:13:10.177
18 1:14:14.450 0:01:57.534 33368 kbps 53531 kbps 01:15:34.530 41117 kbps 01:15:04.833 40007 kbps 01:15:02.414 173967 bytes 783615 bytes 01:16:09.147
19 1:16:11.984 0:04:26.015 36484 kbps 52027 kbps 01:18:56.898 41244 kbps 01:18:54.271 39523 kbps 01:20:05.634 190210 bytes 780246 bytes 01:17:04.328
20 1:20:37.999 0:04:41.197 37776 kbps 55774 kbps 01:21:18.331 41760 kbps 01:21:17.622 40411 kbps 01:24:45.622 196945 bytes 704691 bytes 01:21:18.748
21 1:25:19.197 0:02:39.242 37378 kbps 55741 kbps 01:25:57.485 41085 kbps 01:25:56.276 40426 kbps 01:25:38.341 194871 bytes 738403 bytes 01:27:34.290
22 1:27:58.439 0:02:38.199 38052 kbps 51979 kbps 01:29:29.572 41152 kbps 01:29:29.530 39348 kbps 01:30:21.749 198384 bytes 684232 bytes 01:28:39.022
23 1:30:36.639 0:03:34.505 37503 kbps 48900 kbps 01:33:06.622 40443 kbps 01:31:58.137 39856 kbps 01:30:45.690 195526 bytes 640373 bytes 01:32:28.793
24 1:34:11.145 0:03:45.350 37597 kbps 49998 kbps 01:35:30.015 41720 kbps 01:36:46.133 40413 kbps 01:36:46.008 196013 bytes 770212 bytes 01:35:30.224
25 1:37:56.495 0:01:23.082 37269 kbps 44325 kbps 01:39:10.945 39631 kbps 01:38:44.460 38941 kbps 01:39:03.646 194304 bytes 713518 bytes 01:38:06.547
26 1:39:19.578 0:04:32.647 37715 kbps 57708 kbps 01:39:42.810 40829 kbps 01:40:14.758 39981 kbps 01:39:42.726 196630 bytes 755443 bytes 01:42:19.091
27 1:43:52.226 0:03:05.018 37189 kbps 53475 kbps 01:46:38.225 41714 kbps 01:43:53.477 39926 kbps 01:44:58.917 193887 bytes 732918 bytes 01:45:10.554
28 1:46:57.244 0:03:16.362 33993 kbps 46941 kbps 01:47:20.142 40689 kbps 01:49:57.007 39572 kbps 01:49:58.049 177226 bytes 780149 bytes 01:49:02.536
29 1:50:13.607 0:03:34.714 32509 kbps 62437 kbps 01:52:11.057 42289 kbps 01:52:39.085 39977 kbps 01:51:00.445 169487 bytes 783634 bytes 01:53:37.685
30 1:53:48.321 0:01:49.609 29182 kbps 47121 kbps 01:54:29.404 40486 kbps 01:54:29.237 38477 kbps 01:53:50.031 152258 bytes 783113 bytes 01:54:17.725

STREAM DIAGNOSTICS:

File PID Type Codec Language Seconds Bitrate Bytes Packets
---- --- ---- ----- -------- -------------- -------------- ------------- -----
00000.M2TS 4113 (0x1011) 0x1B AVC 6937,848 35133 30468841198 165689419
00000.M2TS 4352 (0x1100) 0x83 TrueHD jpn (Japanese) 6937,848 4056 3517614758 24445837
00000.M2TS 4608 (0x1200) 0x90 PGS jpn (Japanese) 6937,848 331 287094282 1602178
<pre>
<---- END FORUMS PASTE ---->

QUICK SUMMARY:

Disc Title: [BDMV] ONE PIECE FILM STRONG WORLDDisc Size: 38 621 156 877 bytesProtection: AACSBD-Java: NoPlaylist: 00000.MPLSSize: 36 858 218 496 bytesLength: 1:55:37.931Total Bitrate: 42,50 MbpsVideo: MPEG-4 AVC Video / 35133 kbps / 1080p / 23,976 fps / 16:9 / High Profile 4.1Audio: Japanese / Dolby TrueHD Audio / 5.1 / 48 kHz / 3416 kbps / 24-bit (AC3 Embedded: 5.1 / 48 kHz / 640 kbps)Subtitle: Japanese / 331,043 kbps

********************PLAYLIST: 00004.MPLS********************

<--- BEGIN FORUMS PASTE --->
</pre>
Total Video
Title Codec Length Movie Size Disc Size Bitrate Bitrate Main Audio Track Secondary Audio Track
----- ------ ------- -------------- -------------- ------- ------- ------------------ ---------------------
00004.MPLS AVC 0:03:11 746354688 38621156877 31,14 29,05 DD AC3 2.0 640Kbps
DISC INFO:

Disc Title: [BDMV] ONE PIECE FILM STRONG WORLD
Disc Size: 38621156877 bytes
Protection: AACS
BD-Java: No
BDInfo: 0.5.8

PLAYLIST REPORT:

Name: 00004.MPLS
Length: 0:03:11.758 (h:m:s.ms)
Size: 746354688 bytes
Total Bitrate: 31,14 Mbps

VIDEO:

Codec Bitrate Description
----- ------- -----------
MPEG-4 AVC Video 29052 kbps 1080i / 29,970 fps / 16:9 / High Profile 4.1

AUDIO:

Codec Language Bitrate Description
----- -------- ------- -----------
Dolby Digital Audio Japanese 640 kbps 2.0 / 48 kHz / 640 kbps

FILES:

Name Time In Length Size Total Bitrate
---- ------- ------ ---- -------------
00012.M2TS 0:00:00.000 0:01:36.830 359098368 29668
00013.M2TS 0:01:36.830 0:01:34.928 387256320 32636

CHAPTERS:

Number Time In Length Avg Video Rate Max 1-Sec Rate Max 1-Sec Time Max 5-Sec Rate Max 5-Sec Time Max 10Sec Rate Max 10Sec Time Avg Frame Size Max Frame Size Max Frame Time
------ ------- ------ -------------- -------------- -------------- -------------- -------------- -------------- -------------- -------------- -------------- --------------
1 0:00:00.000 0:01:36.830 27647 kbps 57701 kbps 00:00:03.136 39339 kbps 00:00:07.607 38491 kbps 00:00:02.602 115271 bytes 645267 bytes 00:00:40.807
2 0:01:36.830 0:01:34.928 30486 kbps 55050 kbps 00:01:39.232 39313 kbps 00:02:39.826 37031 kbps 00:02:00.420 127196 bytes 642647 bytes 00:01:39.599

STREAM DIAGNOSTICS:

File PID Type Codec Language Seconds Bitrate Bytes Packets
---- --- ---- ----- -------- -------------- -------------- ------------- -----
00012.M2TS 4113 (0x1011) 0x1B AVC 96,763 27664 334601818 1821625
00012.M2TS 4352 (0x1100) 0x81 AC3 jpn (Japanese) 96,763 640 7746560 45390
00013.M2TS 4113 (0x1011) 0x1B AVC 94,861 30510 361775730 1969251
00013.M2TS 4352 (0x1100) 0x81 AC3 jpn (Japanese) 94,861 641 7595520 44505
<pre>
<---- END FORUMS PASTE ---->

QUICK SUMMARY:

Disc Title: [BDMV] ONE PIECE FILM STRONG WORLDDisc Size: 38 621 156 877 bytesProtection: AACSBD-Java: NoPlaylist: 00004.MPLSSize: 746 354 688 bytesLength: 0:03:11.758Total Bitrate: 31,14 MbpsVideo: MPEG-4 AVC Video / 29052 kbps / 1080i / 29,970 fps / 16:9 / High Profile 4.1Audio: Japanese / Dolby Digital Audio / 2.0 / 48 kHz / 640 kbps

********************PLAYLIST: 00005.MPLS********************

<--- BEGIN FORUMS PASTE --->
</pre>
Total Video
Title Codec Length Movie Size Disc Size Bitrate Bitrate Main Audio Track Secondary Audio Track
----- ------ ------- -------------- -------------- ------- ------- ------------------ ---------------------
00005.MPLS AVC 0:01:50 459368448 38621156877 33,38 31,20 DD AC3 2.0 640Kbps
DISC INFO:

Disc Title: [BDMV] ONE PIECE FILM STRONG WORLD
Disc Size: 38621156877 bytes
Protection: AACS
BD-Java: No
BDInfo: 0.5.8

PLAYLIST REPORT:

Name: 00005.MPLS
Length: 0:01:50.109 (h:m:s.ms)
Size: 459368448 bytes
Total Bitrate: 33,38 Mbps

VIDEO:

Codec Bitrate Description
----- ------- -----------
MPEG-4 AVC Video 31197 kbps 1080i / 29,970 fps / 16:9 / High Profile 4.1

AUDIO:

Codec Language Bitrate Description
----- -------- ------- -----------
Dolby Digital Audio Japanese 640 kbps 2.0 / 48 kHz / 640 kbps

FILES:

Name Time In Length Size Total Bitrate
---- ------- ------ ---- -------------
00017.M2TS 0:00:00.000 0:01:50.109 459368448 33375

CHAPTERS:

Number Time In Length Avg Video Rate Max 1-Sec Rate Max 1-Sec Time Max 5-Sec Rate Max 5-Sec Time Max 10Sec Rate Max 10Sec Time Avg Frame Size Max Frame Size Max Frame Time
------ ------- ------ -------------- -------------- -------------- -------------- -------------- -------------- -------------- -------------- -------------- --------------
1 0:00:00.000 0:00:31.030 31321 kbps 50402 kbps 00:00:01.434 38854 kbps 00:00:06.006 37031 kbps 00:00:05.939 130496 bytes 566302 bytes 00:00:29.996
2 0:00:31.030 0:00:31.030 30452 kbps 46365 kbps 00:00:56.022 35897 kbps 00:00:42.409 35212 kbps 00:00:37.437 127012 bytes 610416 bytes 00:01:00.960
3 0:01:02.061 0:00:16.016 28955 kbps 54120 kbps 00:01:03.029 36172 kbps 00:01:02.729 34635 kbps 00:01:03.029 120766 bytes 444846 bytes 00:01:16.776
4 0:01:18.078 0:00:16.015 30149 kbps 43976 kbps 00:01:21.815 37084 kbps 00:01:23.416 36049 kbps 00:01:18.411 125747 bytes 480771 bytes 00:01:32.792
5 0:01:34.094 0:00:16.015 35689 kbps 48899 kbps 00:01:44.404 39565 kbps 00:01:35.795 38635 kbps 00:01:35.662 149164 bytes 362627 bytes 00:01:44.704

STREAM DIAGNOSTICS:

File PID Type Codec Language Seconds Bitrate Bytes Packets
---- --- ---- ----- -------- -------------- -------------- ------------- -----
00017.M2TS 4113 (0x1011) 0x1B AVC 110,043 31216 429388146 2337176
00017.M2TS 4352 (0x1100) 0x81 AC3 jpn (Japanese) 110,043 641 8811520 51630
<pre>
<---- END FORUMS PASTE ---->

QUICK SUMMARY:

Disc Title: [BDMV] ONE PIECE FILM STRONG WORLDDisc Size: 38 621 156 877 bytesProtection: AACSBD-Java: NoPlaylist: 00005.MPLSSize: 459 368 448 bytesLength: 0:01:50.109Total Bitrate: 33,38 MbpsVideo: MPEG-4 AVC Video / 31197 kbps / 1080i / 29,970 fps / 16:9 / High Profile 4.1Audio: Japanese / Dolby Digital Audio / 2.0 / 48 kHz / 640 kbps

********************PLAYLIST: 00003.MPLS********************

<--- BEGIN FORUMS PASTE --->
</pre>
Total Video
Title Codec Length Movie Size Disc Size Bitrate Bitrate Main Audio Track Secondary Audio Track
----- ------ ------- -------------- -------------- ------- ------- ------------------ ---------------------
00003.MPLS AVC 0:01:31 382046208 38621156877 33,42 31,24 DD AC3 2.0 640Kbps
DISC INFO:

Disc Title: [BDMV] ONE PIECE FILM STRONG WORLD
Disc Size: 38621156877 bytes
Protection: AACS
BD-Java: No
BDInfo: 0.5.8

PLAYLIST REPORT:

Name: 00003.MPLS
Length: 0:01:31.458 (h:m:s.ms)
Size: 382046208 bytes
Total Bitrate: 33,42 Mbps

VIDEO:

Codec Bitrate Description
----- ------- -----------
MPEG-4 AVC Video 31238 kbps 1080i / 29,970 fps / 16:9 / High Profile 4.1

AUDIO:

Codec Language Bitrate Description
----- -------- ------- -----------
Dolby Digital Audio Japanese 640 kbps 2.0 / 48 kHz / 640 kbps

FILES:

Name Time In Length Size Total Bitrate
---- ------- ------ ---- -------------
00010.M2TS 0:00:00.000 0:00:46.413 204288000 35212
00011.M2TS 0:00:46.413 0:00:45.045 177758208 31570

CHAPTERS:

Number Time In Length Avg Video Rate Max 1-Sec Rate Max 1-Sec Time Max 5-Sec Rate Max 5-Sec Time Max 10Sec Rate Max 10Sec Time Avg Frame Size Max Frame Size Max Frame Time
------ ------- ------ -------------- -------------- -------------- -------------- -------------- -------------- -------------- -------------- -------------- --------------
1 0:00:00.000 0:00:46.413 32961 kbps 60908 kbps 00:00:37.904 41003 kbps 00:00:28.294 39040 kbps 00:00:23.223 137376 bytes 725535 bytes 00:00:32.732
2 0:00:46.413 0:00:45.045 29462 kbps 58225 kbps 00:00:53.420 39969 kbps 00:01:18.111 36579 kbps 00:01:17.377 122973 bytes 700962 bytes 00:01:02.362

STREAM DIAGNOSTICS:

File PID Type Codec Language Seconds Bitrate Bytes Packets
---- --- ---- ----- -------- -------------- -------------- ------------- -----
00010.M2TS 4113 (0x1011) 0x1B AVC 46,346 33004 191199749 1040639
00010.M2TS 4352 (0x1100) 0x81 AC3 jpn (Japanese) 46,346 641 3714560 21765
00011.M2TS 4113 (0x1011) 0x1B AVC 44,978 29511 165917890 903170
00011.M2TS 4352 (0x1100) 0x81 AC3 jpn (Japanese) 44,978 641 3604480 21120
<pre>
<---- END FORUMS PASTE ---->

QUICK SUMMARY:

Disc Title: [BDMV] ONE PIECE FILM STRONG WORLDDisc Size: 38 621 156 877 bytesProtection: AACSBD-Java: NoPlaylist: 00003.MPLSSize: 382 046 208 bytesLength: 0:01:31.458Total Bitrate: 33,42 MbpsVideo: MPEG-4 AVC Video / 31238 kbps / 1080i / 29,970 fps / 16:9 / High Profile 4.1Audio: Japanese / Dolby Digital Audio / 2.0 / 48 kHz / 640 kbps
</pre>


 ·  , , FAQ-
:  [ 24--2012 10:15 ]

  

.torrent

.torrent 163 KB


: 32.54 GB
(hash) : 1a1f61bd6c1783371c458b46f7a8cb46d0628309
:
··
...

-: One Piece: Movie 10 Strong World . !

!