Скачать через торрент музыку Heat - Old Sparky - 2012, FLAC бесплатно без регистрации torrent

Если у вас наблюдаются проблемы со скриншотами, переходом по ссылками, скачиванием торрентов - проблемы в блокировщике рекламы AdBlock. #хорошегоДня!


Статистика раздачи
Размер:  294 MB   |    Зарегистрирован:  4 года 7 месяцев   |    .torrent скачан:  20 раз   |   
Раздают:  1  
   
Загрузка...
 
Автор Сообщение

Galfimbul

avatar Galfimbul


Heat
Old Sparky
Жанр: Hard Rock, Stoner, Psychedelic, Blues
Год издания: 2012
Страна: Germany
Аудиокодек: FLAC (*.flac)
Тип рипа: tracks+.cue
Битрейт аудио: lossless
Продолжительность: 00:45:25
Источник (релизер): [What.CD] blackangels
Наличие сканов в содержимом раздачи: нет
Треклист:
01. Daymare 08:11
02. Warhead 05:00
03. Hamelin 05:13
04. Illusion 05:34
05. Old Sparky 05:43
06. Ending Aging 15:42
X Lossless Decoder version 20121027 (142.1)

XLD extraction logfile from 2012-12-22 10:11:51 -0500

Heat / Heat

Used drive : OPTIARC DVD RW AD-5970H (revision 3AP9)

Ripper mode : XLD Secure RipperDisable audio cache : OK for the drive with a cache less than 1375KiBMake use of C2 pointers : NORead offset correction : 48Max retry count : 20Gap status : Analyzed, Appended

TOC of the extracted CD Track | Start | Length | Start sector | End sector --------------------------------------------------------- 1 | 00:00:00 | 08:11:20 | 0 | 36844 2 | 08:11:20 | 05:00:08 | 36845 | 59352 3 | 13:11:28 | 05:13:66 | 59353 | 82893 4 | 18:25:19 | 05:34:23 | 82894 | 107966 5 | 23:59:42 | 05:43:05 | 107967 | 133696 6 | 29:42:47 | 15:42:31 | 133697 | 204377

AccurateRip Summary Disc not found in AccurateRip DB.

All Tracks Album gain : -8.86 dB Peak : 1.000000 Statistics Read error : 0 Jitter error (maybe fixed) : 0 Retry sector count : 0 Damaged sector count : 0

Track 01 Filename : /Users/teenatimmer/Desktop/Heat:Old Spanky:2012flac/Heat - Heat (Unknown Year) [FLAC]/01 - Daymare.flac Pre-gap length : 00:02:00

Track gain : -9.13 dB Peak : 1.000000 CRC32 hash (test run) : 8C979A00 CRC32 hash : 8C979A00 CRC32 hash (skip zero) : 3E78CAFF AccurateRip v1 signature : 1D02DF4F AccurateRip v2 signature : 4F617D2D ->Track not present in AccurateRip database. Statistics Read error : 0 Jitter error (maybe fixed) : 0 Retry sector count : 0 Damaged sector count : 0

Track 02 Filename : /Users/teenatimmer/Desktop/Heat:Old Spanky:2012flac/Heat - Heat (Unknown Year) [FLAC]/02 - Warhead.flac

Track gain : -8.87 dB Peak : 1.000000 CRC32 hash (test run) : D0096C70 CRC32 hash : D0096C70 CRC32 hash (skip zero) : 666EFD73 AccurateRip v1 signature : 86BE4055 AccurateRip v2 signature : A7126890 ->Track not present in AccurateRip database. Statistics Read error : 0 Jitter error (maybe fixed) : 0 Retry sector count : 0 Damaged sector count : 0

Track 03 Filename : /Users/teenatimmer/Desktop/Heat:Old Spanky:2012flac/Heat - Heat (Unknown Year) [FLAC]/03 - Hamelin.flac

Track gain : -7.80 dB Peak : 1.000000 CRC32 hash (test run) : 1A282416 CRC32 hash : 1A282416 CRC32 hash (skip zero) : 64208B74 AccurateRip v1 signature : C4FAAAF1 AccurateRip v2 signature : 6F591322 ->Track not present in AccurateRip database. Statistics Read error : 0 Jitter error (maybe fixed) : 0 Retry sector count : 0 Damaged sector count : 0

Track 04 Filename : /Users/teenatimmer/Desktop/Heat:Old Spanky:2012flac/Heat - Heat (Unknown Year) [FLAC]/04 - Illusion.flac

Track gain : -8.67 dB Peak : 1.000000 CRC32 hash (test run) : 1E300DAB CRC32 hash : 1E300DAB CRC32 hash (skip zero) : 2F950631 AccurateRip v1 signature : 15A4DA4A AccurateRip v2 signature : 666A0BF0 ->Track not present in AccurateRip database. Statistics Read error : 0 Jitter error (maybe fixed) : 0 Retry sector count : 0 Damaged sector count : 0

Track 05 Filename : /Users/teenatimmer/Desktop/Heat:Old Spanky:2012flac/Heat - Heat (Unknown Year) [FLAC]/05 - Old Sparky.flac

Track gain : -7.17 dB Peak : 0.976990 CRC32 hash (test run) : 09CA10C9 CRC32 hash : 09CA10C9 CRC32 hash (skip zero) : 8D2C5642 AccurateRip v1 signature : 048B9C30 AccurateRip v2 signature : 790B5DE2 ->Track not present in AccurateRip database. Statistics Read error : 0 Jitter error (maybe fixed) : 0 Retry sector count : 0 Damaged sector count : 0

Track 06 Filename : /Users/teenatimmer/Desktop/Heat:Old Spanky:2012flac/Heat - Heat (Unknown Year) [FLAC]/06 - Ending Aging.flac

Track gain : -9.02 dB Peak : 1.000000 CRC32 hash (test run) : 4B87E2FD CRC32 hash : 4B87E2FD CRC32 hash (skip zero) : 99D96F58 AccurateRip v1 signature : F39FA5AA AccurateRip v2 signature : A7549A7A ->Track not present in AccurateRip database. Statistics Read error : 0 Jitter error (maybe fixed) : 0 Retry sector count : 0 Damaged sector count : 0

No errors occurred

End of status report
TITLE "Heat"PERFORMER "Heat"CATALOG 4040824026080REM GENRE "Rock"REM DISCID 4C0AA506FILE "CDImage.wav" WAVE TRACK 01 AUDIO TITLE "Daymare" ISRC DES341200050 INDEX 01 00:00:00 TRACK 02 AUDIO TITLE "Warhead" ISRC DES341200051 INDEX 01 08:11:20 TRACK 03 AUDIO TITLE "Hamelin" ISRC DES341200052 INDEX 01 13:11:28 TRACK 04 AUDIO TITLE "Illusion" ISRC DES341200053 INDEX 01 18:25:19 TRACK 05 AUDIO TITLE "Old Sparky" ISRC DES341200054 INDEX 01 23:59:42 TRACK 06 AUDIO TITLE "Ending Aging" ISRC DES341200055 INDEX 01 29:42:47



Трекер:  [ 28-Дек-2012 16:31 ]

  

Скачать .torrent

Размер .torrent файла 12 KB


Размер: 294 MB
Хэш (hash) релиза: f2c03d1e5813e29f01bc6f45ba2355dfee69e7e0

Еще никто не оставлял запись к записи скачать торрент Heat - Old Sparky - 2012, FLAC . Будь первым!

!Обратная связь