Скачать через торрент музыку Rick Wakeman - Journey to the Centre of the Earth бесплатно без регистрации torrent

Если у вас наблюдаются проблемы со скриншотами, переходом по ссылками, скачиванием торрентов - проблемы в блокировщике рекламы AdBlock. #хорошегоДня!


Статистика раздачи
Размер:  263 MB   |    Зарегистрирован:  4 года 10 месяцев   |    .torrent скачан:  37 раз   |   
Раздают:  1  
   
Загрузка...
 
Автор Сообщение

Galfimbul

avatar Galfimbul


Rick Wakeman - Journey to the Centre of the Earth



Жанр: Progressive Rock
Страна-производитель диска: USA
Год издания диска: 1988
Издатель (лейбл): A&M
Номер по каталогу: CD 3156/7502131562
Страна: UK
Аудио кодек: FLAC (*.flac)
Тип рипа: image+.cue
Битрейт аудио: lossless
Продолжительность: 40:09
Источник (релизер): dafnaplus
Наличие сканов в содержимом раздачи: да
Трэклист:
01. The Journey 8:56
02. Recollection 12:16
03. The Battle 10:24
04. The Forest 8:33
Exact Audio Copy V1.0 beta 3 from 29. August 2011

EAC extraction logfile from 22. December 2012, 22:07

Rick Wakeman / Journey to the Centre of the Earth (CD 3156)

Used drive : PLEXTOR DVDR PX-891SA Adapter: 1 ID: 0

Read mode : SecureUtilize accurate stream : YesDefeat audio cache : YesMake use of C2 pointers : No

Read offset correction : 6Overread into Lead-In and Lead-Out : NoFill up missing offset samples with silence : YesDelete leading and trailing silent blocks : NoNull samples used in CRC calculations : YesUsed interface : Native Win32 interface for Win NT & 2000

Used output format : User Defined EncoderSelected bitrate : 1024 kBit/sQuality : HighAdd ID3 tag : NoCommand line compressor : C:\Program Files\Exact Audio Copy\Flac\flac.exeAdditional command line options : -V -8 -T "Genre=%genre%" -T "Artist=%artist%" -T "Title=%title%" -T "Album=%albumtitle%" -T "Date=%year%" -T "Tracknumber=%tracknr%" -T "Comment=%comment%" %source%

TOC of the extracted CD

Track | Start | Length | Start sector | End sector --------------------------------------------------------- 1 | 0:00.00 | 8:55.43 | 0 | 40167 2 | 8:55.43 | 12:15.70 | 40168 | 95362 3 | 21:11.38 | 10:23.65 | 95363 | 142152 4 | 31:35.28 | 8:33.31 | 142153 | 180658

Range status and errors

Selected range

Filename H:\dafnaplus\Rick Wakeman - Journey to the Centre of the Earth\Rick Wakeman - Journey to the Centre of the Earth (CD 3156).wav

Peak level 97.6 % Extraction speed 8.1 X Range quality 100.0 % Test CRC 6743203D Copy CRC 6743203D Copy OK

No errors occurred

AccurateRip summary

Track 1 accurately ripped (confidence 7) [304F7267] (AR v2)Track 2 accurately ripped (confidence 7) [2DEAD65B] (AR v2)Track 3 accurately ripped (confidence 7) [DD9A189B] (AR v2)Track 4 accurately ripped (confidence 7) [083488B7] (AR v2)

All tracks accurately ripped

End of status report

==== Log checksum 9A17AF4BB2D17D1102D784E3AD16FD434A12AFA71274D40085E4132582986D1E ====


Трекер:  [ 23-Дек-2012 12:09 ]

  

Скачать .torrent

Размер .torrent файла 11 KB


Размер: 263 MB
Хэш (hash) релиза: 723aa97443390a6f48a5202fb7b371ab5c9ef791

Еще никто не оставлял запись к записи скачать торрент Rick Wakeman - Journey to the Centre of the Earth . Будь первым!

!Обратная связь