Скачать через торрент музыку Gerard - Live In Marseille --Battle Triangle-- - 2010, APE бесплатно без регистрации torrent

Если у вас наблюдаются проблемы со скриншотами, переходом по ссылками, скачиванием торрентов - проблемы в блокировщике рекламы AdBlock. #хорошегоДня!


Статистика раздачи
Размер:  363 MB   |    Зарегистрирован:  4 года 10 месяцев   |    .torrent скачан:  24 раза   |   
Раздают:  1  
   
Загрузка...
 
Автор Сообщение

Galfimbul

avatar Galfimbul


Gerard / Live In Marseille --Battle Triangle--

Жанр: Neo-Prog / Progressive Rock
Страна-производитель диска: Japan
Год издания: 2010
Издатель (лейбл): ALTAVOZ
Номер по каталогу: ALT-31
Страна: Japan
Аудиокодек: APE (*.ape)
Тип рипа: image+.cue
Битрейт аудио: lossless
Продолжительность: 00:46:24
Источник (релизер): домашние закрома
Наличие сканов в содержимом раздачи: да
Треклист:
1. Chaos
2. La Conquista Della Posizione Eretta
3. Orpheus Part 2
4. Into The Dark
5. Meridian
6. Freedom
7. The Act Of The Apostles
8. Pandora's Box
Exact Audio Copy V1.0 beta 3 from 29. August 2011

Отчёт EAC об извлечении, выполненном 9. декабря 2012, 19:15

Gerard / Live in Marseille - Battle Triangle -

Дисковод: ASUS SDRW-08D1S-U Adapter: 1 ID: 0

Режим чтения : ДостоверностьИспользование точного потока : ДаОтключение кэша аудио : ДаИспользование указателей C2 : Нет

Коррекция смещения при чтении : 103Способность читать области Lead-in и Lead-out : НетЗаполнение пропущенных сэмплов тишиной : ДаУдаление блоков с тишиной в начале и конце : НетПри вычислениях CRC использовались нулевые сэмплы : ДаИнтерфейс : Встроенный Win32-интерфейс для Win NT/2000

Выходной формат : Пользовательский кодировщикВыбранный битрейт : 1024 kBit/sКачество : ВысокийДобавление ID3-тега : НетУтилита сжатия : C:\Program Files\Exact Audio Copy\Monkey's Audio\MAC.exeДополнительные параметры : %source% %dest% -c3000

TOC извлечённого CD

Трек | Старт | Длительность | Начальный сектор | Конечный сектор --------------------------------------------------------------------- 1 | 0:00.00 | 5:36.00 | 0 | 25199 2 | 5:36.00 | 5:26.05 | 25200 | 49654 3 | 11:02.05 | 3:39.53 | 49655 | 66132 4 | 14:41.58 | 4:55.32 | 66133 | 88289 5 | 19:37.15 | 3:22.63 | 88290 | 103502 6 | 23:00.03 | 2:39.00 | 103503 | 115427 7 | 25:39.03 | 4:52.30 | 115428 | 137357 8 | 30:31.33 | 12:09.37 | 137358 | 192069 9 | 42:40.70 | 3:43.05 | 192070 | 208799

Характеристики диапазона извлечения и сообщения об ошибках

Выбранный диапазон

Имя файла H:\!!!-МОИ РАЗДАЧИ-!!!\CD - новые\Gerard (1998) - Live in Marseille -Battle Triangle- (2010)\Gerard - Live in Marseille - Battle Triangle -.wav

Пиковый уровень 98.8 % Скорость извлечения 2.0 X Качество диапазона 100.0 % CRC теста 4A5AABC1 CRC копии 4A5AABC1 Копирование... OK

Ошибок не произошло

Конец отчёта

---- CUETools DB Plugin V2.1.3

[CTDB TOCID: O5cWJO7JB86d26fDOJqtV0h.AUk-] disk not present in database, Submit result: O5cWJO7JB86d26fDOJqtV0h.AUk- has been uploaded

==== Контрольная сумма отчёта 2566929931433EDF86DB28AC6BC36496B48793CD0DA9623B26CE4EB5F02C8B8F ====
AUDIOCHECKER v2.0 beta (build 457) - by Dester - <a href="mailto:opdester@freemail.hu" class="postLink">opdester@freemail.hu</a>~~~~~~~~~~~~~~~~~~~~~~~~~~~~~~~~~~-=== НЕ РЕДАКТИРУЙТЕ ЭТОТ ФАЙЛ! ===-

Путь: ...\Gerard (1998) - Live in Marseille -Battle Triangle- (2010)

01 -=- Gerard - Live in Marseille - Battle Triangle -.ape -=- CDDA (100%)

30508564
Доп. информация: Весьма достойный концерт, и по подбору вещей, и по исполнительскому мастерству, и по качеству звука. Одно лишь плохо - короток!
- Toshio Egawa / keyboards
- Atsushi Hasegawa / bass
- Masuhori Goto / drums


Трекер:  [ 23-Дек-2012 12:09 ]

  

Скачать .torrent

Размер .torrent файла 15 KB


Размер: 363 MB
Хэш (hash) релиза: f006305a510f5046dfc5a2c0830505462a27d58d

Еще никто не оставлял запись к записи скачать торрент Gerard - Live In Marseille --Battle Triangle-- - 2010, APE . Будь первым!

!Обратная связь