Скачать через торрент музыку Simple Minds & Jim Kerr - Collection бесплатно без регистрации torrent

Если у вас наблюдаются проблемы со скриншотами, переходом по ссылками, скачиванием торрентов - проблемы в блокировщике рекламы AdBlock. #хорошегоДня!


Статистика раздачи
Размер:  7.75 GB   |    Зарегистрирован:  4 года 8 месяцев   |    .torrent скачан:  32 раза   |   
Раздают:  1  
   
Загрузка...
 
Автор Сообщение

Galfimbul

avatar Galfimbul


★●• Simple Minds & Jim Kerr - Collection (11 CD) •●★

Жанр: Pop/Rock/Electronic
Страна-производитель диска: United Kingdom, Germany, Holland
Год издания диска: 1991 - 2010
Аудиокодек: FLAC (*.flac)
Тип рипа: image+.cue
Битрейт аудио: lossless
Наличие сканов в содержимом раздачи: да
Источник (релизер):

01. Real Life [0:04:53.32]
02. See The Lights [0:04:22.18]
03. Let There Be Love [0:04:57.37]
04. Woman [0:04:40.20]
05. Stand By Love [0:04:04.18]
06. Let The Children Speak [0:04:16.50]
07. African Skies [0:04:52.20]
08. Ghostrider [0:03:22.37]
09. Banging On The Door (Intro) [0:01:16.40]
10. Banging On The Door [0:04:22.35]
11. Travelling Man [0:03:34.50]
12. Rivers Of Ice [0:03:30.28]
13. When Two Worlds Collide [0:04:01.65]
Exact Audio Copy V1.0 beta 3 from 29. August 2011

EAC extraction logfile from 21. December 2012, 23:47

Simple Minds / Real Life

Used drive : Optiarc BD RW BD-5300S Adapter: 3 ID: 0

Read mode : SecureUtilize accurate stream : YesDefeat audio cache : YesMake use of C2 pointers : No

Read offset correction : 6Overread into Lead-In and Lead-Out : NoFill up missing offset samples with silence : YesDelete leading and trailing silent blocks : NoNull samples used in CRC calculations : YesUsed interface : Installed external ASPI interface

Used output format : User Defined EncoderSelected bitrate : 1024 kBit/sQuality : HighAdd ID3 tag : NoCommand line compressor : C:\Program Files (x86)\Exact Audio Copy\Flac\flac.exeAdditional command line options : -8 -V -T "Date=%year%" -T "Genre=%genre%" -T "COMMENT=ripped by bvstudio®" %source%

TOC of the extracted CD

Track | Start | Length | Start sector | End sector --------------------------------------------------------- 1 | 0:00.33 | 4:53.32 | 33 | 22039 2 | 4:53.65 | 4:22.18 | 22040 | 41707 3 | 9:16.08 | 4:57.37 | 41708 | 64019 4 | 14:13.45 | 4:40.20 | 64020 | 85039 5 | 18:53.65 | 4:04.18 | 85040 | 103357 6 | 22:58.08 | 4:16.50 | 103358 | 122607 7 | 27:14.58 | 4:52.20 | 122608 | 144527 8 | 32:07.03 | 3:22.37 | 144528 | 159714 9 | 35:29.40 | 1:16.40 | 159715 | 165454 10 | 36:46.05 | 4:22.35 | 165455 | 185139 11 | 41:08.40 | 3:34.50 | 185140 | 201239 12 | 44:43.15 | 3:30.28 | 201240 | 217017 13 | 48:13.43 | 4:01.65 | 217018 | 235157

Range status and errors

Selected range

Filename F:\Simple Minds\1991 - Real Life\Simple Minds - Real Life.wav

Peak level 99.2 % Extraction speed 7.2 X Range quality 100.0 % Test CRC 9C3A7A44 Copy CRC 9C3A7A44 Copy OK

No errors occurred

AccurateRip summary

Track 1 accurately ripped (confidence 2) [417DFECF] (AR v2)Track 2 accurately ripped (confidence 2) [2AC07FF6] (AR v2)Track 3 accurately ripped (confidence 2) [30A13099] (AR v2)Track 4 accurately ripped (confidence 2) [53780287] (AR v2)Track 5 accurately ripped (confidence 2) [3217FADB] (AR v2)Track 6 accurately ripped (confidence 2) [2AD9297C] (AR v2)Track 7 accurately ripped (confidence 2) [9F345717] (AR v2)Track 8 accurately ripped (confidence 2) [1BA52783] (AR v2)Track 9 accurately ripped (confidence 2) [3408401F] (AR v2)Track 10 accurately ripped (confidence 2) [8D9030E5] (AR v2)Track 11 accurately ripped (confidence 2) [08E81CD2] (AR v2)Track 12 accurately ripped (confidence 2) [FF19D8AF] (AR v2)Track 13 accurately ripped (confidence 2) [BD542037] (AR v2)

All tracks accurately ripped

End of status report

==== Log checksum 21FDC082639DC85BD9ABFF35690346B48AC0FB375FA4178202F039F0D5087FF6 ====
foobar2000 1.2 beta 2 / Dynamic Range Meter 1.1.1log date: 2012-12-22 01:13:52

--------------------------------------------------------------------------------Analyzed: Simple Minds / Real Life--------------------------------------------------------------------------------

DR Peak RMS Duration Track--------------------------------------------------------------------------------DR8 -0.06 dB -11.18 dB 4:53 01-Real LifeDR8 -0.14 dB -11.42 dB 4:22 02-See The LightsDR8 -0.06 dB -10.31 dB 4:57 03-Let There Be LoveDR8 -0.12 dB -12.40 dB 4:40 04-WomanDR8 -0.06 dB -9.73 dB 4:04 05-Stand By LoveDR9 -0.07 dB -11.77 dB 4:17 06-Let The Children SpeakDR10 -0.36 dB -12.84 dB 4:52 07-African SkiesDR9 -0.06 dB -11.28 dB 3:22 08-GhostriderDR12 -5.84 dB -20.89 dB 1:17 09-Banging On The Door (Intro)DR10 -0.23 dB -13.40 dB 4:22 10-Banging On The DoorDR7 -0.31 dB -8.47 dB 3:35 11-Travelling ManDR10 -0.43 dB -15.30 dB 3:30 12-Rivers Of IceDR9 -0.24 dB -11.93 dB 4:02 13-When Two Worlds Collide--------------------------------------------------------------------------------

Number of tracks: 13Official DR value: DR9

Samplerate: 44100 HzChannels: 2Bits per sample: 16Bitrate: 909 kbpsCodec: FLAC================================================================================
01. She's A River [0:05:31.70]
02. Night Music [0:05:23.62]
03. Hypnotised [0:05:53.28]
04. Great Leap Forward [0:05:35.45]
05. 7 Deadly Sins [0:05:10.55]
06. And The Band Played On [0:05:32.07]
07. My Life [0:05:15.35]
08. Criminal World [0:05:02.53]
09. This Time [0:04:58.20]
Exact Audio Copy V1.0 beta 3 from 29. August 2011

EAC extraction logfile from 22. December 2012, 0:12

Simple Minds / Good News From The Next World

Used drive : Optiarc BD RW BD-5300S Adapter: 3 ID: 0

Read mode : SecureUtilize accurate stream : YesDefeat audio cache : YesMake use of C2 pointers : No

Read offset correction : 6Overread into Lead-In and Lead-Out : NoFill up missing offset samples with silence : YesDelete leading and trailing silent blocks : NoNull samples used in CRC calculations : YesUsed interface : Installed external ASPI interface

Used output format : User Defined EncoderSelected bitrate : 1024 kBit/sQuality : HighAdd ID3 tag : NoCommand line compressor : C:\Program Files (x86)\Exact Audio Copy\Flac\flac.exeAdditional command line options : -8 -V -T "Date=%year%" -T "Genre=%genre%" -T "COMMENT=ripped by bvstudio®" %source%

TOC of the extracted CD

Track | Start | Length | Start sector | End sector --------------------------------------------------------- 1 | 0:00.00 | 5:31.70 | 0 | 24894 2 | 5:31.70 | 5:23.62 | 24895 | 49181 3 | 10:55.57 | 5:53.28 | 49182 | 75684 4 | 16:49.10 | 5:35.45 | 75685 | 100854 5 | 22:24.55 | 5:10.55 | 100855 | 124159 6 | 27:35.35 | 5:32.07 | 124160 | 149066 7 | 33:07.42 | 5:15.35 | 149067 | 172726 8 | 38:23.02 | 5:02.53 | 172727 | 195429 9 | 43:25.55 | 4:58.20 | 195430 | 217799

Range status and errors

Selected range

Filename F:\Simple Minds\1995 - Good News From The Next World\Simple Minds - Good News From The Next World.wav

Peak level 100.0 % Extraction speed 7.0 X Range quality 99.9 % Test CRC FEEDCBD7 Copy CRC FEEDCBD7 Copy OK

No errors occurred

AccurateRip summary

Track 1 accurately ripped (confidence 41) [AEC4B2E0] (AR v2)Track 2 accurately ripped (confidence 39) [1A2A619E] (AR v2)Track 3 accurately ripped (confidence 39) [44BFAA4A] (AR v2)Track 4 accurately ripped (confidence 38) [8C66E9B2] (AR v2)Track 5 accurately ripped (confidence 39) [D9A3ECED] (AR v2)Track 6 accurately ripped (confidence 40) [1B936117] (AR v2)Track 7 accurately ripped (confidence 40) [FF2BB916] (AR v2)Track 8 accurately ripped (confidence 40) [B1220DBB] (AR v2)Track 9 accurately ripped (confidence 37) [00910B5C] (AR v2)

All tracks accurately ripped

End of status report

==== Log checksum 909F62715AAD7F15018831AAB57E0C0C6BA5F459925339D93510B2E0B424748E ====
foobar2000 1.2 beta 2 / Dynamic Range Meter 1.1.1log date: 2012-12-22 02:28:08

--------------------------------------------------------------------------------Analyzed: Simple Minds / Good News From The Next World--------------------------------------------------------------------------------

DR Peak RMS Duration Track--------------------------------------------------------------------------------DR8 -0.01 dB -9.55 dB 5:32 01-She's A RiverDR8 0.00 dB -9.34 dB 5:24 02-Night MusicDR8 0.00 dB -9.18 dB 5:53 03-HypnotisedDR8 0.00 dB -9.16 dB 5:36 04-Great Leap ForwardDR8 -0.01 dB -9.64 dB 5:11 05-7 Deadly SinsDR8 -0.01 dB -10.26 dB 5:32 06-And The Band Played OnDR8 -0.01 dB -9.82 dB 5:15 07-My LifeDR8 -0.01 dB -9.78 dB 5:03 08-Criminal WorldDR8 -0.01 dB -10.63 dB 4:58 09-This Time--------------------------------------------------------------------------------

Number of tracks: 9Official DR value: DR8

Samplerate: 44100 HzChannels: 2Bits per sample: 16Bitrate: 1039 kbpsCodec: FLAC================================================================================
01. Song For The Tribes [0:05:37.62]
02. Glitterball [0:04:55.55]
03. War Babies [0:05:03.50]
04. Tears Of A Guy [0:04:48.08]
05. Superman v Supersoul [0:04:47.40]
06. Lightning [0:05:35.35]
07. If I Had Wings [0:04:43.42]
08. Killing Andy Warhol [0:05:16.08]
09. Androgyny [0:05:08.45]
Exact Audio Copy V1.0 beta 3 from 29. August 2011

EAC extraction logfile from 22. December 2012, 0:56

Simple Minds / Neapolis

Used drive : Optiarc BD RW BD-5300S Adapter: 3 ID: 0

Read mode : SecureUtilize accurate stream : YesDefeat audio cache : YesMake use of C2 pointers : No

Read offset correction : 6Overread into Lead-In and Lead-Out : NoFill up missing offset samples with silence : YesDelete leading and trailing silent blocks : NoNull samples used in CRC calculations : YesUsed interface : Installed external ASPI interface

Used output format : User Defined EncoderSelected bitrate : 1024 kBit/sQuality : HighAdd ID3 tag : NoCommand line compressor : C:\Program Files (x86)\Exact Audio Copy\Flac\flac.exeAdditional command line options : -8 -V -T "Date=%year%" -T "Genre=%genre%" -T "COMMENT=ripped by bvstudio®" %source%

TOC of the extracted CD

Track | Start | Length | Start sector | End sector --------------------------------------------------------- 1 | 0:00.00 | 5:37.62 | 0 | 25336 2 | 5:37.62 | 4:55.55 | 25337 | 47516 3 | 10:33.42 | 5:03.50 | 47517 | 70291 4 | 15:37.17 | 4:48.08 | 70292 | 91899 5 | 20:25.25 | 4:47.40 | 91900 | 113464 6 | 25:12.65 | 5:35.35 | 113465 | 138624 7 | 30:48.25 | 4:43.42 | 138625 | 159891 8 | 35:31.67 | 5:16.08 | 159892 | 183599 9 | 40:48.00 | 5:08.45 | 183600 | 206744

Range status and errors

Selected range

Filename F:\Simple Minds\1998 - Neapolis\Simple Minds - Neapolis.wav

Peak level 99.7 % Extraction speed 3.1 X Range quality 99.9 % Test CRC 6BA0C70E Copy CRC 6BA0C70E Copy OK

No errors occurred

AccurateRip summary

Track 1 accurately ripped (confidence 9) [BB8F3138] (AR v2)Track 2 accurately ripped (confidence 9) [1A068303] (AR v2)Track 3 accurately ripped (confidence 9) [AA6BABC9] (AR v2)Track 4 accurately ripped (confidence 9) [3949B5A3] (AR v2)Track 5 accurately ripped (confidence 9) [2D696E8D] (AR v2)Track 6 accurately ripped (confidence 9) [6CF38611] (AR v2)Track 7 accurately ripped (confidence 9) [CB0DDC63] (AR v2)Track 8 accurately ripped (confidence 9) [A5A8E0A4] (AR v2)Track 9 accurately ripped (confidence 9) [A7FA2CCD] (AR v2)

All tracks accurately ripped

End of status report

==== Log checksum CC476CA86D3554D995BD92A2CC36E96C5B2D9E42E384F5530ABD37331DCCCC66 ====
foobar2000 1.2 beta 2 / Dynamic Range Meter 1.1.1log date: 2012-12-22 03:20:28

--------------------------------------------------------------------------------Analyzed: Simple Minds / Neapolis--------------------------------------------------------------------------------

DR Peak RMS Duration Track--------------------------------------------------------------------------------DR9 -0.43 dB -11.76 dB 5:38 01-Song For The TribesDR9 -0.02 dB -10.94 dB 4:56 02-GlitterballDR9 -0.12 dB -10.73 dB 5:04 03-War BabiesDR10 -0.02 dB -12.39 dB 4:48 04-Tears Of A GuyDR9 -0.25 dB -11.48 dB 4:48 05-Superman v SupersoulDR9 -0.12 dB -10.78 dB 5:35 06-LightningDR9 -0.25 dB -11.46 dB 4:44 07-If I Had WingsDR9 -0.25 dB -10.83 dB 5:16 08-Killing Andy WarholDR9 -0.44 dB -11.12 dB 5:09 09-Androgyny--------------------------------------------------------------------------------

Number of tracks: 9Official DR value: DR9

Samplerate: 44100 HzChannels: 2Bits per sample: 16Bitrate: 952 kbpsCodec: FLAC================================================================================
Disc 1:

01. Don't You (Forget About Me) [0:04:23.22]
02. Promised You A Miracle [0:03:58.62]
03. Waterfront [0:04:51.27]
04. Alive And Kicking [0:05:26.46]
05. Glittering Prize [0:04:00.15]
06. All The Things She Said [0:04:18.23]
07. Sanctify Yourself [0:04:59.11]
08. Someone Somewhere (In Summertime) [0:04:34.64]
09. Ghostdancing [0:04:46.70]
10. Up On The Catwalk [0:04:07.01]
11. Speed Your Love To Me [0:04:05.74]
12. Theme For Great Cities [0:05:52.40]
13. Love Song [0:03:54.02]
14. The American [0:03:36.51]
15. Sweat In Bullet [0:04:32.26]
16. Life In A Day [0:04:07.47]
17. I Travel [0:04:00.09]

Disc 2:

01. Let There Be Love [0:05:16.36]
02. This Is Your Land [0:05:05.71]
03. Kick It In [0:04:23.68]
04. Let It All Come Down [0:03:41.72]
05. See The Lights [0:04:26.29]
06. Stand By Love [0:04:09.59]
07. Real Life [0:04:55.39]
08. She's A River [0:04:32.45]
09. Hypnotised [0:04:46.07]
10. Glitterball [0:04:28.55]
11. War Babies [0:04:25.33]
12. Mandela Day [0:05:41.74]
13. Biko [0:07:36.27]
14. Belfast Child [0:06:43.34]
15. The Real Life (Raven Maize) [0:02:55.31]
Exact Audio Copy V1.0 beta 3 from 29. August 2011

EAC extraction logfile from 22. December 2012, 1:39

Simple Minds / The Best Of Simple Minds (Disc 1)

Used drive : Optiarc BD RW BD-5300S Adapter: 3 ID: 0

Read mode : SecureUtilize accurate stream : YesDefeat audio cache : YesMake use of C2 pointers : No

Read offset correction : 6Overread into Lead-In and Lead-Out : NoFill up missing offset samples with silence : YesDelete leading and trailing silent blocks : NoNull samples used in CRC calculations : YesUsed interface : Installed external ASPI interface

Used output format : User Defined EncoderSelected bitrate : 1024 kBit/sQuality : HighAdd ID3 tag : NoCommand line compressor : C:\Program Files (x86)\Exact Audio Copy\Flac\flac.exeAdditional command line options : -8 -V -T "Date=%year%" -T "Genre=%genre%" -T "COMMENT=ripped by bvstudio®" %source%

TOC of the extracted CD

Track | Start | Length | Start sector | End sector --------------------------------------------------------- 1 | 0:00.00 | 4:23.22 | 0 | 19746 2 | 4:23.22 | 3:58.62 | 19747 | 37658 3 | 8:22.09 | 4:51.27 | 37659 | 59510 4 | 13:13.36 | 5:26.46 | 59511 | 84006 5 | 18:40.07 | 4:00.15 | 84007 | 102021 6 | 22:40.22 | 4:18.23 | 102022 | 121394 7 | 26:58.45 | 4:59.11 | 121395 | 143830 8 | 31:57.56 | 4:34.64 | 143831 | 164444 9 | 36:32.45 | 4:46.70 | 164445 | 185964 10 | 41:19.40 | 4:07.01 | 185965 | 204490 11 | 45:26.41 | 4:05.74 | 204491 | 222939 12 | 49:32.40 | 5:52.40 | 222940 | 249379 13 | 55:25.05 | 3:54.02 | 249380 | 266931 14 | 59:19.07 | 3:36.51 | 266932 | 283182 15 | 62:55.58 | 4:32.26 | 283183 | 303608 16 | 67:28.09 | 4:07.47 | 303609 | 322180 17 | 71:35.56 | 4:00.09 | 322181 | 340189

Range status and errors

Selected range

Filename F:\Simple Minds\2001 - The Best Of\CD1\Simple Minds - The Best Of Simple Minds (Disc 1).wav

Peak level 98.8 % Extraction speed 8.5 X Range quality 100.0 % Test CRC 0675A42A Copy CRC 0675A42A Copy OK

No errors occurred

AccurateRip summary

Track 1 accurately ripped (confidence 22) [630C36F2] (AR v2)Track 2 accurately ripped (confidence 22) [C79E6648] (AR v2)Track 3 accurately ripped (confidence 21) [2DF3A4CA] (AR v2)Track 4 accurately ripped (confidence 21) [1B1D5E49] (AR v2)Track 5 accurately ripped (confidence 21) [FC44984E] (AR v2)Track 6 accurately ripped (confidence 21) [8B103013] (AR v2)Track 7 accurately ripped (confidence 21) [6B63CE61] (AR v2)Track 8 accurately ripped (confidence 21) [173B18F2] (AR v2)Track 9 accurately ripped (confidence 21) [F1741230] (AR v2)Track 10 accurately ripped (confidence 21) [A1C26023] (AR v2)Track 11 accurately ripped (confidence 21) [6AE139BD] (AR v2)Track 12 accurately ripped (confidence 21) [02E3F232] (AR v2)Track 13 accurately ripped (confidence 21) [D2442FC8] (AR v2)Track 14 accurately ripped (confidence 21) [5B27B3AE] (AR v2)Track 15 accurately ripped (confidence 21) [D964B29B] (AR v2)Track 16 accurately ripped (confidence 21) [37D920F9] (AR v2)Track 17 accurately ripped (confidence 22) [7DF18E8B] (AR v2)

All tracks accurately ripped

End of status report

==== Log checksum E09BEC9ABFC89AA2CE550A79DF6587FF8FEE8BB730A2C6AD62F0594E4B17CA28 ====
foobar2000 1.2 beta 2 / Dynamic Range Meter 1.1.1log date: 2012-12-22 04:45:45

--------------------------------------------------------------------------------Analyzed: Simple Minds / The Best Of Simple Minds (Disc 1)--------------------------------------------------------------------------------

DR Peak RMS Duration Track--------------------------------------------------------------------------------DR8 -0.20 dB -9.80 dB 4:23 01-Don't You (Forget About Me)DR7 -1.40 dB -9.60 dB 3:59 02-Promised You A MiracleDR8 -0.10 dB -9.09 dB 4:51 03-WaterfrontDR8 -0.10 dB -9.85 dB 5:27 04-Alive And KickingDR8 -0.70 dB -9.69 dB 4:00 05-Glittering PrizeDR8 -0.10 dB -9.30 dB 4:18 06-All The Things She SaidDR8 -0.10 dB -9.08 dB 4:59 07-Sanctify YourselfDR8 -0.10 dB -10.13 dB 4:35 08-Someone Somewhere (In Summertime)DR8 -0.20 dB -9.64 dB 4:47 09-GhostdancingDR8 -0.20 dB -9.11 dB 4:07 10-Up On The CatwalkDR8 -0.20 dB -9.38 dB 4:06 11-Speed Your Love To MeDR8 -0.10 dB -9.74 dB 5:53 12-Theme For Great CitiesDR9 -0.20 dB -10.09 dB 3:54 13-Love SongDR7 -0.20 dB -8.33 dB 3:37 14-The AmericanDR8 -0.20 dB -9.10 dB 4:32 15-Sweat In BulletDR7 -0.20 dB -8.45 dB 4:08 16-Life In A DayDR8 -0.20 dB -8.87 dB 4:00 17-I Travel--------------------------------------------------------------------------------

Number of tracks: 17Official DR value: DR8

Samplerate: 44100 HzChannels: 2Bits per sample: 16Bitrate: 1002 kbpsCodec: FLAC================================================================================
Exact Audio Copy V1.0 beta 3 from 29. August 2011

EAC extraction logfile from 22. December 2012, 2:32

Simple Minds / The Best Of Simple Minds (Disc 2)

Used drive : Optiarc BD RW BD-5300S Adapter: 3 ID: 0

Read mode : SecureUtilize accurate stream : YesDefeat audio cache : YesMake use of C2 pointers : No

Read offset correction : 6Overread into Lead-In and Lead-Out : NoFill up missing offset samples with silence : YesDelete leading and trailing silent blocks : NoNull samples used in CRC calculations : YesUsed interface : Installed external ASPI interface

Used output format : User Defined EncoderSelected bitrate : 1024 kBit/sQuality : HighAdd ID3 tag : NoCommand line compressor : C:\Program Files (x86)\Exact Audio Copy\Flac\flac.exeAdditional command line options : -8 -V -T "Date=%year%" -T "Genre=%genre%" -T "COMMENT=ripped by bvstudio®" %source%

TOC of the extracted CD

Track | Start | Length | Start sector | End sector --------------------------------------------------------- 1 | 0:00.00 | 5:16.36 | 0 | 23735 2 | 5:16.36 | 5:05.71 | 23736 | 46681 3 | 10:22.32 | 4:23.68 | 46682 | 66474 4 | 14:46.25 | 3:41.72 | 66475 | 83121 5 | 18:28.22 | 4:26.29 | 83122 | 103100 6 | 22:54.51 | 4:09.59 | 103101 | 121834 7 | 27:04.35 | 4:55.39 | 121835 | 143998 8 | 31:59.74 | 4:32.45 | 143999 | 164443 9 | 36:32.44 | 4:46.07 | 164444 | 185900 10 | 41:18.51 | 4:28.55 | 185901 | 206055 11 | 45:47.31 | 4:25.33 | 206056 | 225963 12 | 50:12.64 | 5:41.74 | 225964 | 251612 13 | 55:54.63 | 7:36.27 | 251613 | 285839 14 | 63:31.15 | 6:43.34 | 285840 | 316098 15 | 70:14.49 | 2:55.31 | 316099 | 329254

Range status and errors

Selected range

Filename F:\Simple Minds\2001 - The Best Of\CD2\Simple Minds - The Best Of Simple Minds (Disc 2).wav

Peak level 93.2 % Extraction speed 2.5 X Range quality 100.0 % Test CRC 9085263C Copy CRC 9085263C Copy OK

No errors occurred

AccurateRip summary

Track 1 accurately ripped (confidence 18) [7435EE86] (AR v2)Track 2 accurately ripped (confidence 18) [6414E6D1] (AR v2)Track 3 accurately ripped (confidence 18) [D6EDD9A5] (AR v2)Track 4 accurately ripped (confidence 18) [858B11BB] (AR v2)Track 5 accurately ripped (confidence 18) [15E315F0] (AR v2)Track 6 accurately ripped (confidence 18) [27685108] (AR v2)Track 7 accurately ripped (confidence 18) [F9CFEE27] (AR v2)Track 8 accurately ripped (confidence 18) [A26616A1] (AR v2)Track 9 accurately ripped (confidence 18) [A32A8C66] (AR v2)Track 10 accurately ripped (confidence 18) [F53924FF] (AR v2)Track 11 accurately ripped (confidence 18) [0F46B9B8] (AR v2)Track 12 accurately ripped (confidence 18) [0462F0B8] (AR v2)Track 13 accurately ripped (confidence 18) [6F3CA770] (AR v2)Track 14 accurately ripped (confidence 19) [E99451DB] (AR v2)Track 15 accurately ripped (confidence 18) [48938322] (AR v2)

All tracks accurately ripped

End of status report

==== Log checksum 32B5A86AA43A5083F09DB88D70DB749B54C7DE9D4B040C33E30C6C9AA3DAE5A0 ====
foobar2000 1.2 beta 2 / Dynamic Range Meter 1.1.1log date: 2012-12-22 17:17:09

--------------------------------------------------------------------------------Analyzed: Simple Minds / The Best Of Simple Minds (Disc 2)--------------------------------------------------------------------------------

DR Peak RMS Duration Track--------------------------------------------------------------------------------DR7 -0.70 dB -9.91 dB 5:16 01-Let There Be LoveDR8 -1.20 dB -10.86 dB 5:06 02-This Is Your LandDR7 -0.70 dB -9.48 dB 4:24 03-Kick It InDR10 -0.70 dB -13.55 dB 3:42 04-Let It All Come DownDR8 -0.70 dB -10.78 dB 4:26 05-See The LightsDR8 -0.70 dB -10.28 dB 4:10 06-Stand By LoveDR8 -0.70 dB -12.00 dB 4:56 07-Real LifeDR7 -0.60 dB -8.68 dB 4:33 08-She's A RiverDR9 -0.70 dB -10.49 dB 4:46 09-HypnotisedDR9 -0.70 dB -11.16 dB 4:29 10-GlitterballDR9 -0.60 dB -10.90 dB 4:25 11-War BabiesDR9 -0.60 dB -11.56 dB 5:42 12-Mandela DayDR7 -0.70 dB -9.42 dB 7:36 13-BikoDR7 -0.70 dB -12.43 dB 6:43 14-Belfast ChildDR8 -1.10 dB -10.28 dB 2:55 15-The Real Life (Raven Maize)--------------------------------------------------------------------------------

Number of tracks: 15Official DR value: DR8

Samplerate: 44100 HzChannels: 2Bits per sample: 16Bitrate: 922 kbpsCodec: FLAC================================================================================
01. Gloria [0:03:45.01]
02. The Man Who Sold The World [0:04:07.70]
03. Homosapien [0:04:20.58]
04. Dancing Barefoot [0:03:48.19]
05. Neon Lights [0:04:16.69]
06. Hello I Love You [0:03:32.41]
07. Bring On The Dancing Horses [0:05:51.57]
08. The Needle And The Damage Done [0:04:15.24]
09. For Your Pleasure [0:04:08.70]
10. All Tomorrow's Parties [0:03:33.38]
Exact Audio Copy V1.0 beta 3 from 29. August 2011

EAC extraction logfile from 22. December 2012, 3:00

Simple Minds / Neon Lights

Used drive : Optiarc BD RW BD-5300S Adapter: 3 ID: 0

Read mode : SecureUtilize accurate stream : YesDefeat audio cache : YesMake use of C2 pointers : No

Read offset correction : 6Overread into Lead-In and Lead-Out : NoFill up missing offset samples with silence : YesDelete leading and trailing silent blocks : NoNull samples used in CRC calculations : YesUsed interface : Installed external ASPI interface

Used output format : User Defined EncoderSelected bitrate : 1024 kBit/sQuality : HighAdd ID3 tag : NoCommand line compressor : C:\Program Files (x86)\Exact Audio Copy\Flac\flac.exeAdditional command line options : -8 -V -T "Date=%year%" -T "Genre=%genre%" -T "COMMENT=ripped by bvstudio®" %source%

TOC of the extracted CD

Track | Start | Length | Start sector | End sector --------------------------------------------------------- 1 | 0:00.00 | 3:45.01 | 0 | 16875 2 | 3:45.01 | 4:07.70 | 16876 | 35470 3 | 7:52.71 | 4:20.58 | 35471 | 55028 4 | 12:13.54 | 3:48.19 | 55029 | 72147 5 | 16:01.73 | 4:16.69 | 72148 | 91416 6 | 20:18.67 | 3:32.41 | 91417 | 107357 7 | 23:51.33 | 5:51.57 | 107358 | 133739 8 | 29:43.15 | 4:15.24 | 133740 | 152888 9 | 33:58.39 | 4:08.70 | 152889 | 171558 10 | 38:07.34 | 3:33.38 | 171559 | 187571

Range status and errors

Selected range

Filename F:\Simple Minds\2001 - Neon Lights\Simple Minds - Neon Lights.wav

Peak level 98.8 % Extraction speed 6.7 X Range quality 99.9 % Test CRC 5C5D0F40 Copy CRC 5C5D0F40 Copy OK

No errors occurred

AccurateRip summary

Track 1 accurately ripped (confidence 7) [3CC716E9] (AR v2)Track 2 accurately ripped (confidence 7) [FF556235] (AR v2)Track 3 accurately ripped (confidence 7) [3C661D7A] (AR v2)Track 4 accurately ripped (confidence 7) [A02B247A] (AR v2)Track 5 accurately ripped (confidence 7) [03D510A1] (AR v2)Track 6 accurately ripped (confidence 7) [5180119A] (AR v2)Track 7 accurately ripped (confidence 7) [B9C5248E] (AR v2)Track 8 accurately ripped (confidence 7) [04464AC3] (AR v2)Track 9 accurately ripped (confidence 7) [E87B7FDC] (AR v2)Track 10 accurately ripped (confidence 6) [9AF0603A] (AR v2)

All tracks accurately ripped

End of status report

==== Log checksum 233A9DE06F930855369C771066B6555859DE9C86EA56D6F1D4B4C39AF2F75ACD ====
foobar2000 1.2 beta 2 / Dynamic Range Meter 1.1.1log date: 2012-12-22 04:06:35

--------------------------------------------------------------------------------Analyzed: Simple Minds / Neon Lights--------------------------------------------------------------------------------

DR Peak RMS Duration Track--------------------------------------------------------------------------------DR7 -0.20 dB -8.62 dB 3:45 01-GloriaDR7 -0.30 dB -8.13 dB 4:08 02-The Man Who Sold The WorldDR5 -0.20 dB -6.75 dB 4:21 03-HomosapienDR8 -0.20 dB -10.03 dB 3:48 04-Dancing BarefootDR8 -0.10 dB -10.75 dB 4:17 05-Neon LightsDR9 -0.10 dB -9.80 dB 3:33 06-Hello I Love YouDR8 -0.20 dB -10.61 dB 5:52 07-Bring On The Dancing HorsesDR6 -0.20 dB -9.67 dB 4:15 08-The Needle And The Damage DoneDR11 -0.20 dB -13.10 dB 4:09 09-For Your PleasureDR7 -0.20 dB -8.12 dB 3:34 10-All Tomorrow's Parties--------------------------------------------------------------------------------

Number of tracks: 10Official DR value: DR8

Samplerate: 44100 HzChannels: 2Bits per sample: 16Bitrate: 881 kbpsCodec: FLAC================================================================================
01. Cry [0:03:55.69]
02. Spaceface [0:03:53.59]
03. New Sunshine Morning [0:03:36.13]
04. One Step Closer [0:06:06.05]
05. Face In The Sun [0:03:57.46]
06. Disconnected [0:03:37.19]
07. Lazy Lately [0:04:02.21]
08. Sugar [0:03:13.16]
09. Sleeping Girl [0:04:11.15]
10. Cry Again [0:03:35.68]
11. Slave Nation [0:03:01.01]
12. The Floating World [0:04:23.74]
Exact Audio Copy V1.0 beta 3 from 29. August 2011

EAC extraction logfile from 22. December 2012, 3:34

Simple Minds / Cry

Used drive : Optiarc BD RW BD-5300S Adapter: 3 ID: 0

Read mode : SecureUtilize accurate stream : YesDefeat audio cache : YesMake use of C2 pointers : No

Read offset correction : 6Overread into Lead-In and Lead-Out : NoFill up missing offset samples with silence : YesDelete leading and trailing silent blocks : NoNull samples used in CRC calculations : YesUsed interface : Installed external ASPI interface

Used output format : User Defined EncoderSelected bitrate : 1024 kBit/sQuality : HighAdd ID3 tag : NoCommand line compressor : C:\Program Files (x86)\Exact Audio Copy\Flac\flac.exeAdditional command line options : -8 -V -T "Date=%year%" -T "Genre=%genre%" -T "COMMENT=ripped by bvstudio®" %source%

TOC of the extracted CD

Track | Start | Length | Start sector | End sector --------------------------------------------------------- 1 | 0:00.00 | 3:55.69 | 0 | 17693 2 | 3:55.69 | 3:53.59 | 17694 | 35227 3 | 7:49.53 | 3:36.13 | 35228 | 51440 4 | 11:25.66 | 6:06.05 | 51441 | 78895 5 | 17:31.71 | 3:57.46 | 78896 | 96716 6 | 21:29.42 | 3:37.19 | 96717 | 113010 7 | 25:06.61 | 4:02.21 | 113011 | 131181 8 | 29:09.07 | 3:13.16 | 131182 | 145672 9 | 32:22.23 | 4:11.15 | 145673 | 164512 10 | 36:33.38 | 3:35.68 | 164513 | 180705 11 | 40:09.31 | 3:01.01 | 180706 | 194281 12 | 43:10.32 | 4:23.74 | 194282 | 214080 13 | 50:06.31 | 14:34.24 | 225481 | 291054

Range status and errors

Selected range

Filename F:\Simple Minds\2002 - Cry (Limited Numbered Edition)\Simple Minds - Cry.wav

Peak level 97.6 % Extraction speed 3.3 X Range quality 100.0 % Test CRC 68FC7003 Copy CRC 68FC7003 Copy OK

No errors occurred

AccurateRip summary

Track 1 accurately ripped (confidence 2) [B5C2A270] (AR v2)Track 2 accurately ripped (confidence 2) [195441F4] (AR v2)Track 3 accurately ripped (confidence 2) [B19D9155] (AR v2)Track 4 accurately ripped (confidence 2) [FF95D2BE] (AR v2)Track 5 accurately ripped (confidence 2) [735FF3ED] (AR v2)Track 6 accurately ripped (confidence 2) [6EACF67A] (AR v2)Track 7 accurately ripped (confidence 2) [0D889A1E] (AR v2)Track 8 accurately ripped (confidence 2) [C666465C] (AR v2)Track 9 accurately ripped (confidence 2) [06936D20] (AR v2)Track 10 accurately ripped (confidence 2) [8FC8F5C5] (AR v2)Track 11 accurately ripped (confidence 2) [161BBD6C] (AR v2)Track 12 accurately ripped (confidence 2) [6E4E0982] (AR v2)

All tracks accurately ripped

End of status report

==== Log checksum F8293E5BA53DAD6E77A1D4C182F96FA6E543B5A58E46B73EDFF6D6742B0E067E ====
foobar2000 1.2 beta 2 / Dynamic Range Meter 1.1.1log date: 2012-12-22 19:03:40

--------------------------------------------------------------------------------Analyzed: Simple Minds / Cry--------------------------------------------------------------------------------

DR Peak RMS Duration Track--------------------------------------------------------------------------------DR6 -0.35 dB -8.39 dB 3:56 01-CryDR7 -0.20 dB -8.88 dB 3:54 02-SpacefaceDR7 -0.20 dB -9.64 dB 3:36 03-New Sunshine MorningDR6 -0.30 dB -8.65 dB 6:06 04-One Step CloserDR8 -0.30 dB -10.28 dB 3:58 05-Face In The SunDR6 -0.30 dB -7.22 dB 3:37 06-DisconnectedDR8 -0.30 dB -9.25 dB 4:02 07-Lazy LatelyDR6 -0.30 dB -8.13 dB 3:13 08-SugarDR7 -0.30 dB -9.04 dB 4:11 09-Sleeping GirlDR10 -0.30 dB -12.17 dB 3:36 10-Cry AgainDR9 -1.31 dB -11.37 dB 3:01 11-Slave NationDR7 -0.20 dB -8.22 dB 4:24 12-The Floating World--------------------------------------------------------------------------------

Number of tracks: 12Official DR value: DR7

Samplerate: 44100 HzChannels: 2Bits per sample: 16Bitrate: 921 kbpsCodec: FLAC================================================================================
01. Stay Visible [0:05:19.10]
02. Home [0:04:23.35]
03. Stranger [0:04:08.22]
04. Different World (Taormina.Me) [0:04:37.50]
05. Underneath The Ice [0:04:45.60]
06. The Jeweller Part II [0:04:18.30]
07. A Life Shot In Black And White [0:03:35.23]
08. Kiss The Ground [0:04:06.02]
09. Dolphins [0:05:57.20]
Exact Audio Copy V1.0 beta 3 from 29. August 2011

EAC extraction logfile from 22. December 2012, 3:53

Simple Minds / Black And White 050505

Used drive : Optiarc BD RW BD-5300S Adapter: 3 ID: 0

Read mode : SecureUtilize accurate stream : YesDefeat audio cache : YesMake use of C2 pointers : No

Read offset correction : 6Overread into Lead-In and Lead-Out : NoFill up missing offset samples with silence : YesDelete leading and trailing silent blocks : NoNull samples used in CRC calculations : YesUsed interface : Installed external ASPI interface

Used output format : User Defined EncoderSelected bitrate : 1024 kBit/sQuality : HighAdd ID3 tag : NoCommand line compressor : C:\Program Files (x86)\Exact Audio Copy\Flac\flac.exeAdditional command line options : -8 -V -T "Date=%year%" -T "Genre=%genre%" -T "COMMENT=ripped by bvstudio®" %source%

TOC of the extracted CD

Track | Start | Length | Start sector | End sector --------------------------------------------------------- 1 | 0:00.00 | 5:19.10 | 0 | 23934 2 | 5:19.10 | 4:23.35 | 23935 | 43694 3 | 9:42.45 | 4:08.22 | 43695 | 62316 4 | 13:50.67 | 4:37.50 | 62317 | 83141 5 | 18:28.42 | 4:45.60 | 83142 | 104576 6 | 23:14.27 | 4:18.30 | 104577 | 123956 7 | 27:32.57 | 3:35.23 | 123957 | 140104 8 | 31:08.05 | 4:06.02 | 140105 | 158556 9 | 35:14.07 | 5:57.20 | 158557 | 185351 10 | 43:43.27 | 5:42.73 | 196752 | 222474

Range status and errors

Selected range

Filename F:\Simple Minds\2005 - Black & White 050505\Simple Minds - Black And White 050505.wav

Peak level 99.2 % Extraction speed 6.7 X Range quality 100.0 % Test CRC B97FB07C Copy CRC B97FB07C Copy OK

No errors occurred

AccurateRip summary

Track 1 accurately ripped (confidence 10) [805709FD] (AR v2)Track 2 accurately ripped (confidence 10) [63C021C5] (AR v2)Track 3 accurately ripped (confidence 10) [19F6D7AD] (AR v2)Track 4 accurately ripped (confidence 10) [FC797EDC] (AR v2)Track 5 accurately ripped (confidence 10) [80DBC6F0] (AR v2)Track 6 accurately ripped (confidence 10) [60CF0AF5] (AR v2)Track 7 accurately ripped (confidence 10) [B901B896] (AR v2)Track 8 accurately ripped (confidence 10) [42154F3E] (AR v2)Track 9 accurately ripped (confidence 9) [9853BDFE] (AR v2)

All tracks accurately ripped

End of status report

==== Log checksum 4C1974745E987071E04C4E6F8137A813944C1D2DF3C6B2726BDA9120D31A2997 ====
foobar2000 1.2 beta 2 / Dynamic Range Meter 1.1.1log date: 2012-12-22 19:57:09

--------------------------------------------------------------------------------Analyzed: Simple Minds / Black And White 050505--------------------------------------------------------------------------------

DR Peak RMS Duration Track--------------------------------------------------------------------------------DR6 -0.10 dB -8.15 dB 5:19 01-Stay VisibleDR6 -0.10 dB -7.51 dB 4:23 02-HomeDR6 -0.10 dB -7.84 dB 4:08 03-StrangerDR7 -0.10 dB -8.30 dB 4:38 04-Different World (Taormina.Me)DR7 -0.10 dB -8.63 dB 4:46 05-Underneath The IceDR7 -0.07 dB -8.50 dB 4:18 06-The Jeweller Part IIDR7 -0.10 dB -8.23 dB 3:35 07-A Life Shot In Black And WhiteDR7 -0.10 dB -8.40 dB 4:06 08-Kiss The GroundDR7 -0.10 dB -9.53 dB 5:57 09-Dolphins--------------------------------------------------------------------------------

Number of tracks: 9Official DR value: DR6

Samplerate: 44100 HzChannels: 2Bits per sample: 16Bitrate: 935 kbpsCodec: FLAC================================================================================
01. Moscow Underground [0:05:01.04]
02. Rockets [0:04:35.41]
03. Stars Will Lead The Way [0:03:25.49]
04. Light Travels [0:04:12.17]
05. Kiss And Fly [0:05:01.15]
06. Graffiti Soul [0:04:48.23]
07. Blood Type O [0:03:48.43]
08. This Is It [0:04:52.05]
09. Shadows And Light (bonus track) [0:02:50.36]
Exact Audio Copy V1.0 beta 3 from 29. August 2011

EAC extraction logfile from 22. December 2012, 4:24

Simple Minds / Graffiti Soul

Used drive : Optiarc BD RW BD-5300S Adapter: 3 ID: 0

Read mode : SecureUtilize accurate stream : YesDefeat audio cache : YesMake use of C2 pointers : No

Read offset correction : 6Overread into Lead-In and Lead-Out : NoFill up missing offset samples with silence : YesDelete leading and trailing silent blocks : NoNull samples used in CRC calculations : YesUsed interface : Installed external ASPI interface

Used output format : User Defined EncoderSelected bitrate : 1024 kBit/sQuality : HighAdd ID3 tag : NoCommand line compressor : C:\Program Files (x86)\Exact Audio Copy\Flac\flac.exeAdditional command line options : -8 -V -T "Date=%year%" -T "Genre=%genre%" -T "COMMENT=ripped by bvstudio®" %source%

TOC of the extracted CD

Track | Start | Length | Start sector | End sector --------------------------------------------------------- 1 | 0:00.00 | 5:01.04 | 0 | 22578 2 | 5:01.04 | 4:35.41 | 22579 | 43244 3 | 9:36.45 | 3:25.49 | 43245 | 58668 4 | 13:02.19 | 4:12.17 | 58669 | 77585 5 | 17:14.36 | 5:01.15 | 77586 | 100175 6 | 22:15.51 | 4:48.23 | 100176 | 121798 7 | 27:03.74 | 3:48.43 | 121799 | 138941 8 | 30:52.42 | 4:52.05 | 138942 | 160846 9 | 35:44.47 | 2:50.36 | 160847 | 173632

Range status and errors

Selected range

Filename F:\Simple Minds\2009 - Graffiti Soul (Deluxe)\CD1\Simple Minds - Graffiti Soul.wav

Peak level 100.0 % Extraction speed 3.0 X Range quality 100.0 % Test CRC A080AC20 Copy CRC A080AC20 Copy OK

No errors occurred

AccurateRip summary

Track 1 accurately ripped (confidence 8) [3DBF0F91] (AR v2)Track 2 accurately ripped (confidence 8) [F7672666] (AR v2)Track 3 accurately ripped (confidence 8) [3A8B06BA] (AR v2)Track 4 accurately ripped (confidence 8) [B6A86515] (AR v2)Track 5 accurately ripped (confidence 8) [707A684F] (AR v2)Track 6 accurately ripped (confidence 8) [05663ABC] (AR v2)Track 7 accurately ripped (confidence 8) [F596F805] (AR v2)Track 8 accurately ripped (confidence 8) [AA7D1D71] (AR v2)Track 9 accurately ripped (confidence 8) [47076BE9] (AR v2)

All tracks accurately ripped

End of status report

==== Log checksum C32DC294EB2584CAD93F37CA97917D7E49D1B0F7785F87FB87C5567E94844BC3 ====
foobar2000 1.2 beta 2 / Dynamic Range Meter 1.1.1log date: 2012-12-22 20:34:52

--------------------------------------------------------------------------------Analyzed: Simple Minds / Graffiti Soul--------------------------------------------------------------------------------

DR Peak RMS Duration Track--------------------------------------------------------------------------------DR7 0.00 dB -8.55 dB 5:01 01-Moscow UndergroundDR7 0.00 dB -8.62 dB 4:36 02-RocketsDR7 0.00 dB -8.03 dB 3:26 03-Stars Will Lead The WayDR6 0.00 dB -8.70 dB 4:12 04-Light TravelsDR7 0.00 dB -9.06 dB 5:01 05-Kiss And FlyDR7 0.00 dB -8.55 dB 4:48 06-Graffiti SoulDR7 0.00 dB -7.99 dB 3:49 07-Blood Type ODR7 0.00 dB -8.28 dB 4:52 08-This Is ItDR7 0.00 dB -8.98 dB 2:50 09-Shadows And Light (bonus track)--------------------------------------------------------------------------------

Number of tracks: 9Official DR value: DR7

Samplerate: 44100 HzChannels: 2Bits per sample: 16Bitrate: 936 kbpsCodec: FLAC================================================================================
01. Rockin' In The Free World [0:04:18.29]
02. A Song From Under The Floorboards [0:04:32.73]
03. Christine [0:03:11.50]
04. Get A Grip [0:03:51.73]
05. Let The Day Begin [0:03:02.47]
06. Peace, Love and Understanding [0:03:33.64]
07. Teardrop [0:05:33.32]
08. Whiskey In The Jar [0:03:59.68]
09. Sloop John B [0:04:34.23]
Exact Audio Copy V1.0 beta 3 from 29. August 2011

EAC extraction logfile from 22. December 2012, 4:52

Simple Minds / Searching For The Lost Boys

Used drive : Optiarc BD RW BD-5300S Adapter: 3 ID: 0

Read mode : SecureUtilize accurate stream : YesDefeat audio cache : YesMake use of C2 pointers : No

Read offset correction : 6Overread into Lead-In and Lead-Out : NoFill up missing offset samples with silence : YesDelete leading and trailing silent blocks : NoNull samples used in CRC calculations : YesUsed interface : Installed external ASPI interface

Used output format : User Defined EncoderSelected bitrate : 1024 kBit/sQuality : HighAdd ID3 tag : NoCommand line compressor : C:\Program Files (x86)\Exact Audio Copy\Flac\flac.exeAdditional command line options : -8 -V -T "Date=%year%" -T "Genre=%genre%" -T "COMMENT=ripped by bvstudio®" %source%

TOC of the extracted CD

Track | Start | Length | Start sector | End sector --------------------------------------------------------- 1 | 0:00.00 | 4:18.29 | 0 | 19378 2 | 4:18.29 | 4:32.73 | 19379 | 39851 3 | 8:51.27 | 3:11.50 | 39852 | 54226 4 | 12:03.02 | 3:51.73 | 54227 | 71624 5 | 15:55.00 | 3:02.47 | 71625 | 85321 6 | 18:57.47 | 3:33.64 | 85322 | 101360 7 | 22:31.36 | 5:33.32 | 101361 | 126367 8 | 28:04.68 | 3:59.68 | 126368 | 144360 9 | 32:04.61 | 4:34.23 | 144361 | 164933

Range status and errors

Selected range

Filename F:\Simple Minds\2009 - Graffiti Soul (Deluxe)\CD2\Simple Minds - Searching For The Lost Boys.wav

Peak level 100.0 % Extraction speed 3.0 X Range quality 100.0 % Test CRC 8A28FF03 Copy CRC 8A28FF03 Copy OK

No errors occurred

AccurateRip summary

Track 1 accurately ripped (confidence 8) [8FDA7FF6] (AR v2)Track 2 accurately ripped (confidence 8) [9F304503] (AR v2)Track 3 accurately ripped (confidence 8) [710628A2] (AR v2)Track 4 accurately ripped (confidence 8) [184C20F4] (AR v2)Track 5 accurately ripped (confidence 8) [2BE6DAB3] (AR v2)Track 6 accurately ripped (confidence 8) [13E03935] (AR v2)Track 7 accurately ripped (confidence 8) [28672948] (AR v2)Track 8 accurately ripped (confidence 8) [126F97D6] (AR v2)Track 9 accurately ripped (confidence 8) [899C9514] (AR v2)

All tracks accurately ripped

End of status report

==== Log checksum 6EBC7FF8BD4F9FCFF07CEC9D31B02C66808EC0637CBD69688DED5A648C351D8A ====
foobar2000 1.2 beta 2 / Dynamic Range Meter 1.1.1log date: 2012-12-22 20:35:19

--------------------------------------------------------------------------------Analyzed: Simple Minds / Searching For The Lost Boys--------------------------------------------------------------------------------

DR Peak RMS Duration Track--------------------------------------------------------------------------------DR7 0.00 dB -7.81 dB 4:18 01-Rockin' In The Free WorldDR7 0.00 dB -7.95 dB 4:33 02-A Song From Under The FloorboardsDR7 0.00 dB -8.43 dB 3:12 03-ChristineDR7 0.00 dB -7.66 dB 3:52 04-Get A GripDR6 0.00 dB -7.38 dB 3:03 05-Let The Day BeginDR7 0.00 dB -7.56 dB 3:34 06-Peace, Love and UnderstandingDR6 0.00 dB -7.72 dB 5:33 07-TeardropDR7 0.00 dB -8.16 dB 4:00 08-Whiskey In The JarDR7 0.00 dB -8.97 dB 4:34 09-Sloop John B--------------------------------------------------------------------------------

Number of tracks: 9Official DR value: DR7

Samplerate: 44100 HzChannels: 2Bits per sample: 16Bitrate: 888 kbpsCodec: FLAC================================================================================
01. Refugee [0:04:11.71]
02. She Fell In Love With Silence [0:04:32.35]
03. Shadowland [0:04:08.41]
04. Return Of The King [0:03:48.40]
05. Red Letter Day [0:04:20.23]
06. Remember Asia [0:03:47.56]
07. Bulletproof Heart [0:04:32.00]
08. Lostboy [0:03:50.14]
09. Nail Thru My Heart [0:05:12.35]
10. Soloman Solohead [0:03:27.67]
11. The Wait Parts 1+2 [0:05:51.60]
12. Mr Silversmith (bonus track) [0:04:19.59]
13. Karma To This Rain (bonus track) [0:04:19.24]
14. Sad Stone Child (bonus track) [0:04:01.42]
Exact Audio Copy V1.0 beta 3 from 29. August 2011

EAC extraction logfile from 22. December 2012, 5:41

Lostboy! A.K.A Jim Kerr / Lostboy!

Used drive : Optiarc BD RW BD-5300S Adapter: 3 ID: 0

Read mode : SecureUtilize accurate stream : YesDefeat audio cache : YesMake use of C2 pointers : No

Read offset correction : 6Overread into Lead-In and Lead-Out : NoFill up missing offset samples with silence : YesDelete leading and trailing silent blocks : NoNull samples used in CRC calculations : YesUsed interface : Installed external ASPI interface

Used output format : User Defined EncoderSelected bitrate : 1024 kBit/sQuality : HighAdd ID3 tag : NoCommand line compressor : C:\Program Files (x86)\Exact Audio Copy\Flac\flac.exeAdditional command line options : -8 -V -T "Date=%year%" -T "Genre=%genre%" -T "COMMENT=ripped by bvstudio®" %source%

TOC of the extracted CD

Track | Start | Length | Start sector | End sector --------------------------------------------------------- 1 | 0:00.00 | 4:11.71 | 0 | 18895 2 | 4:11.71 | 4:32.35 | 18896 | 39330 3 | 8:44.31 | 4:08.41 | 39331 | 57971 4 | 12:52.72 | 3:48.40 | 57972 | 75111 5 | 16:41.37 | 4:20.23 | 75112 | 94634 6 | 21:01.60 | 3:47.56 | 94635 | 111715 7 | 24:49.41 | 4:32.00 | 111716 | 132115 8 | 29:21.41 | 3:50.14 | 132116 | 149379 9 | 33:11.55 | 5:12.35 | 149380 | 172814 10 | 38:24.15 | 3:27.67 | 172815 | 188406 11 | 41:52.07 | 5:51.60 | 188407 | 214791 12 | 47:43.67 | 4:19.59 | 214792 | 234275 13 | 52:03.51 | 4:19.24 | 234276 | 253724 14 | 56:23.00 | 4:01.42 | 253725 | 271841

Range status and errors

Selected range

Filename F:\Simple Minds\2010 - Lostboy! A.K.A Jim Kerr\Lostboy! A.K.A Jim Kerr - Lostboy!.wav

Peak level 99.9 % Extraction speed 2.2 X Range quality 100.0 % Test CRC F6B29DB2 Copy CRC F6B29DB2 Copy OK

No errors occurred

AccurateRip summary

Track 1 accurately ripped (confidence 17) [1E225845] (AR v1)Track 2 accurately ripped (confidence 17) [5A33B83E] (AR v1)Track 3 accurately ripped (confidence 17) [63EB2B5F] (AR v1)Track 4 accurately ripped (confidence 17) [447CC57B] (AR v1)Track 5 accurately ripped (confidence 17) [76626128] (AR v1)Track 6 accurately ripped (confidence 17) [56818F69] (AR v1)Track 7 accurately ripped (confidence 17) [A9D77604] (AR v1)Track 8 accurately ripped (confidence 17) [3272EF04] (AR v1)Track 9 accurately ripped (confidence 17) [8DF1E548] (AR v1)Track 10 accurately ripped (confidence 17) [99BCA7E6] (AR v1)Track 11 accurately ripped (confidence 17) [71AAA0FC] (AR v1)Track 12 accurately ripped (confidence 17) [BF659C81] (AR v1)Track 13 accurately ripped (confidence 17) [E377EE59] (AR v1)Track 14 accurately ripped (confidence 17) [B638B3F4] (AR v1)

All tracks accurately ripped

End of status report

==== Log checksum DDEFC2DBA5868693C7269C75A15377ABAA99FE42EE0A1C235020D34605E71298 ====
foobar2000 1.2 beta 2 / Dynamic Range Meter 1.1.1log date: 2012-12-22 20:35:57

--------------------------------------------------------------------------------Analyzed: Lostboy! A.K.A Jim Kerr / Lostboy!--------------------------------------------------------------------------------

DR Peak RMS Duration Track--------------------------------------------------------------------------------DR5 0.00 dB -6.07 dB 4:12 01-RefugeeDR6 0.00 dB -7.74 dB 4:32 02-She Fell In Love With SilenceDR5 0.00 dB -7.25 dB 4:09 03-ShadowlandDR6 0.00 dB -8.37 dB 3:49 04-Return Of The KingDR6 0.00 dB -7.25 dB 4:20 05-Red Letter DayDR5 0.00 dB -7.03 dB 3:48 06-Remember AsiaDR7 0.00 dB -7.76 dB 4:32 07-Bulletproof HeartDR5 0.00 dB -6.15 dB 3:50 08-LostboyDR5 0.00 dB -8.60 dB 5:12 09-Nail Thru My HeartDR6 0.00 dB -6.77 dB 3:28 10-Soloman SoloheadDR5 0.00 dB -7.84 dB 5:52 11-The Wait Parts 1+2DR4 -1.58 dB -6.97 dB 4:20 12-Mr Silversmith (bonus track)DR4 -1.45 dB -6.85 dB 4:19 13-Karma To This Rain (bonus track)DR7 -0.73 dB -10.25 dB 4:02 14-Sad Stone Child (bonus track)--------------------------------------------------------------------------------

Number of tracks: 14Official DR value: DR5

Samplerate: 44100 HzChannels: 2Bits per sample: 16Bitrate: 949 kbpsCodec: FLAC================================================================================


Трекер:  [ 23-Дек-2012 12:09 ]

  

Скачать .torrent

Размер .torrent файла 32 KB


Размер: 7.75 GB
Хэш (hash) релиза: 52a21bb5d3bb4ff59b19a224ac1ecd2f2dcd6199

Торренты, похожие на Simple Minds & Jim Kerr - Collection скачать торрент

Форум Название Автор Размер S L Добавлен
Rосk | Mеtаl | Аltеrnаtivе, Рunk, Indереndеnt (losslеss) ·· (Pop/Rock/Electronic) Simple Minds & Jim Kerr - Collection (19 CD) - 1991 - 2013, FLAC (image+.cue), lossless Galfimbul 1781982615416.6 GB 0 0 1371459201

11:53

17-Июн-13

Еще никто не оставлял запись к записи скачать торрент Simple Minds & Jim Kerr - Collection . Будь первым!

!Обратная связь