Скачать через торрент музыку Night Ranger - 7 Wishes бесплатно без регистрации torrent

Если у вас наблюдаются проблемы со скриншотами, переходом по ссылками, скачиванием торрентов - проблемы в блокировщике рекламы AdBlock. #хорошегоДня!


Статистика раздачи
Размер:  297 MB   |    Зарегистрирован:  4 года 9 месяцев   |    .torrent скачан:  35 раз   |   
Раздают:  1  
   
Загрузка...
 
Автор Сообщение

Galfimbul

avatar Galfimbul


Night Ranger / 7 Wishes [Remastered]

Жанр: Hard Rock
Страна-производитель диска: UK
Год издания: 2006
Издатель (лейбл): BGO Records
Номер по каталогу: BGOCD732
Страна: USA
Аудиокодек: FLAC (*.flac)
Тип рипа: image+.cue
Битрейт аудио: lossless
Продолжительность: 00:42:26
Источник (релизер): Личный СД
Наличие сканов в содержимом раздачи: Да
Треклист:
01. Seven Wishes
02. Faces
03. Four In The Morning
04. I Need A Woman
05. Sentimental Street
06. This Boy Needs To Rock
07. I Will Follow You
08. Interstate Love Affair
09. Night Machine
10. Goodbye
Exact Audio Copy V1.0 beta 3 from 29. August 2011

Отчёт EAC об извлечении, выполненном 22. декабря 2012, 22:24

Night Ranger / 7 Wishes

Дисковод: PIONEER BD-RW BDR-207D Adapter: 2 ID: 1

Режим чтения : ДостоверностьИспользование точного потока : ДаОтключение кэша аудио : ДаИспользование указателей C2 : Нет

Коррекция смещения при чтении : 667Способность читать области Lead-in и Lead-out : НетЗаполнение пропущенных сэмплов тишиной : ДаУдаление блоков с тишиной в начале и конце : НетПри вычислениях CRC использовались нулевые сэмплы : ДаИнтерфейс : Встроенный Win32-интерфейс для Win NT/2000

Выходной формат : Пользовательский кодировщикВыбранный битрейт : 1024 kBit/sКачество : ВысокийДобавление ID3-тега : НетУтилита сжатия : C:\Program Files\Exact Audio Copy\Flac\flac.exeДополнительные параметры : -V -8 -T "Date=%year%" -T "Genre=%genre%" %source%

TOC извлечённого CD

Трек | Старт | Длительность | Начальный сектор | Конечный сектор --------------------------------------------------------------------- 1 | 0:00.00 | 4:54.51 | 0 | 22100 2 | 4:54.51 | 4:12.24 | 22101 | 41024 3 | 9:07.00 | 3:54.35 | 41025 | 58609 4 | 13:01.35 | 4:40.38 | 58610 | 79647 5 | 17:41.73 | 4:14.56 | 79648 | 98753 6 | 21:56.54 | 4:00.17 | 98754 | 116770 7 | 25:56.71 | 4:16.09 | 116771 | 135979 8 | 30:13.05 | 3:16.38 | 135980 | 150717 9 | 33:29.43 | 4:34.46 | 150718 | 171313 10 | 38:04.14 | 4:22.06 | 171314 | 190969

Характеристики диапазона извлечения и сообщения об ошибках

Выбранный диапазон

Имя файла M:\Раздачи Rodexx\Night Ranger - 7 Wishes\Night Ranger - 7 Wishes.wav

Пиковый уровень 100.0 % Скорость извлечения 6.6 X Качество диапазона 100.0 % CRC теста 34BE123E CRC копии 34BE123E Копирование... OK

Ошибок не произошло

AccurateRip: сводка

Трек 1 : извлечено точно (доверие 2) [72C131C5] (AR v1)Трек 2 : извлечено точно (доверие 2) [B13A5FE9] (AR v1)Трек 3 : извлечено точно (доверие 2) [5400A194] (AR v1)Трек 4 : извлечено точно (доверие 2) [D7C23E93] (AR v1)Трек 5 : извлечено точно (доверие 2) [4209E3BA] (AR v1)Трек 6 : извлечено точно (доверие 2) [462B0F32] (AR v1)Трек 7 : извлечено точно (доверие 2) [44DE165A] (AR v1)Трек 8 : извлечено точно (доверие 2) [D7C1E55B] (AR v1)Трек 9 : извлечено точно (доверие 2) [1146DAC3] (AR v1)Трек 10 : извлечено точно (доверие 2) [20C55027] (AR v1)

Все треки извлечены точно

Конец отчёта

==== Контрольная сумма отчёта 03E4B3454A3F4C9C2CAE1C730BDE533ADB1D40F1A75D6EBD06CEC4E0ADA7C538 ====


Трекер:  [ 23-Дек-2012 12:08 ]

  

Скачать .torrent

Размер .torrent файла 13 KB


Размер: 297 MB
Хэш (hash) релиза: 56f48b1529a88aff80172048f8d8108342140b06

Еще никто не оставлял запись к записи скачать торрент Night Ranger - 7 Wishes . Будь первым!

!Обратная связь