Скачать через торрент музыку Steve Morse Band - StressFest - 1996, FLAC бесплатно без регистрации torrent

Если у вас наблюдаются проблемы со скриншотами, переходом по ссылками, скачиванием торрентов - проблемы в блокировщике рекламы AdBlock. #хорошегоДня!


Статистика раздачи
Размер:  296 MB   |    Зарегистрирован:  4 года 10 месяцев   |    .torrent скачан:  24 раза   |   
Раздают:  1  
   
Загрузка...
 
Автор Сообщение

Galfimbul

avatar Galfimbul


Steve Morse Band / StressFest
Жанр: Blues Rock / Southern / Country Rock / Fusion / Страна-производитель диска: Germany
Год издания: 1996 / Издатель (лейбл): Windham Hill Records / High Street Records
Номер по каталогу: 72902 10345 2 / Страна: Hamilton, Ohio, U.S.
Аудиокодек: FLAC (*.flac) / Тип рипа: image+.cue
Битрейт аудио: lossless / Продолжительность: 00:43:11
Источник (релизер): I Am / Наличие сканов в содержимом раздачи: даТреклист:

01. Stressfest - 03:47
02. Rising Power - 03:58
03. Eyes Of A Child - 04:32
04. Nightwalk - 04:24
05. Brave New World - 04:23
06. 4 Minutes To Live - 03:53
07. The Easy Way - 05:20
08. Glad To Be - 04:34
09. Delicate Balance - 02:32
10. Live To Ride - 05:47
Exact Audio Copy V0.99 prebeta 5 from 4. May 2009

Отчёт EAC об извлечении, выполненном 28. июня 2012, 17:40

Steve Morse Band / Stressfest

Дисковод: ATAPI iHAP122 9 Adapter: 0 ID: 0

Режим чтения : ДостоверностьИспользование точного потока : ДаОтключение кэша аудио : ДаИспользование указателей C2 : Нет

Коррекция смещения при чтении : 6Способность читать области Lead-in и Lead-out : НетЗаполнение пропущенных сэмплов тишиной : ДаУдаление блоков с тишиной в начале и конце : НетПри вычислениях CRC использовались нулевые сэмплы : ДаИнтерфейс : Встроенный Win32-интерфейс для Win NT/2000

Выходной формат : Внутренние WAV-операцииФормат сэмплов : 44.100 Гц; 16 бит; стерео

TOC извлечённого CD

Трек | Старт | Длительность | Начальный сектор | Конечный сектор --------------------------------------------------------------------- 1 | 0:00.00 | 3:47.38 | 0 | 17062 2 | 3:47.38 | 3:58.25 | 17063 | 34937 3 | 7:45.63 | 4:32.02 | 34938 | 55339 4 | 12:17.65 | 4:24.10 | 55340 | 75149 5 | 16:42.00 | 4:23.35 | 75150 | 94909 6 | 21:05.35 | 3:53.10 | 94910 | 112394 7 | 24:58.45 | 5:20.18 | 112395 | 136412 8 | 30:18.63 | 4:34.35 | 136413 | 156997 9 | 34:53.23 | 2:31.55 | 156998 | 168377 10 | 37:25.03 | 5:47.35 | 168378 | 194437

Характеристики диапазона извлечения и сообщения об ошибках

Выбранный диапазон

Имя файла D:\Запись\Steve Morse Band - StressFest\Steve Morse Band - Stressfest.wav

Пиковый уровень 100.0 % Качество диапазона 100.0 % CRC теста 073249F2 CRC копии 073249F2 Копирование... OK

Ошибок не произошло

AccurateRip: сводка

Трек 1 точное извлечение (доверие 7) [F35D2E70]Трек 2 точное извлечение (доверие 7) [C4106C2C]Трек 3 точное извлечение (доверие 7) [0C783B3D]Трек 4 точное извлечение (доверие 7) [0AC7D9CF]Трек 5 точное извлечение (доверие 7) [1854F046]Трек 6 точное извлечение (доверие 7) [F9F5439D]Трек 7 точное извлечение (доверие 7) [99480261]Трек 8 точное извлечение (доверие 7) [7E1544E4]Трек 9 точное извлечение (доверие 7) [2F7BCC70]Трек 10 точное извлечение (доверие 6) [9E872E93]

Все треки извлечены точно

Конец отчёта
AUDIOCHECKER v2.0 beta (build 457) - by Dester - <a href="mailto:opdester@freemail.hu" class="postLink">opdester@freemail.hu</a>~~~~~~~~~~~~~~~~~~~~~~~~~~~~~~~~~~

Started at: четверг, 28. 06. 2012. - 17:55.391 file found

1 -===- D:\Запись\Steve Morse Band - StressFest\Steve Morse Band - Stressfest.flac Extracted successfully Conclusion: this track is CDDA with probability 100% Tempfile successfully deleted.

Finished at: четверг, 28. 06. 2012. - 17:58.19 (operation time: 0:02.40)



Трекер:  [ 23-Дек-2012 12:08 ]

  

Скачать .torrent

Размер .torrent файла 12 KB


Размер: 296 MB
Хэш (hash) релиза: 2c957e9cd5109eacf35132adaf412de8779a244b

Еще никто не оставлял запись к записи скачать торрент Steve Morse Band - StressFest - 1996, FLAC . Будь первым!

!Обратная связь