Скачать через торрент музыку Anyones Daughter - In Blau бесплатно без регистрации torrent

Если у вас наблюдаются проблемы со скриншотами, переходом по ссылками, скачиванием торрентов - проблемы в блокировщике рекламы AdBlock. #хорошегоДня!


Статистика раздачи
Размер:  468 MB   |    Зарегистрирован:  4 года 7 месяцев   |    .torrent скачан:  25 раз   |   
Раздают:  1  
   
Загрузка...
 
Автор Сообщение

Galfimbul

avatar Galfimbul


Anyone`s Daughter - In Blau (1982)

Жанр: Symphonic Prog
Страна-производитель диска: Germany
Год издания: 2012
Издатель (лейбл): Tempus Fugit
Номер по каталогу: SPV 80522 CD
Страна: Germany
Аудиокодек: WavPack (*.wv)
Тип рипа: image+.cue
Битрейт аудио: lossless
Продолжительность: 01:02:30
Источник (релизер): Antikalk (спасибо большое)
Наличие сканов в содержимом раздачи: да
Треклист:
01. Sonnenzeichen-Feuerzeichen [0:05:22.00]
02. Für ein kleines Mädchen [0:05:26.00]
03. Nichts für mich [0:06:35.56]
04. Nach diesem Tag [0:04:11.18]
05. La la [0:03:20.50]
06. Sonne [0:04:48.00]
07. Tanz und Tod [0:15:13.65]
08. Sonne: Adonis Medley (Live in Ettlingen 1982) [0:13:18.68]
09. Nach diesem Tag (Live in Ettlingen 1982) [0:04:13.23]
Exact Audio Copy V1.0 beta 1 from 15. November 2010

EAC extraction logfile from 7. December 2012, 6:23

Anyone`s Daughter / In Blau

Used drive : HL-DT-STDVDRAM GH22NS50 Adapter: 0 ID: 1

Read mode : SecureUtilize accurate stream : YesDefeat audio cache : YesMake use of C2 pointers : No

Read offset correction : 667Overread into Lead-In and Lead-Out : NoFill up missing offset samples with silence : YesDelete leading and trailing silent blocks : NoNull samples used in CRC calculations : YesUsed interface : Installed external ASPI interface

Used output format : Benutzerdefinierter KomprimiererSelected bitrate : 1024 kBit/sQuality : HighAdd ID3 tag : NoCommand line compressor : C:\Program Files (x86)\wavpack\wavpack.exeAdditional command line options : -hm -w "Year=%y" -w "Genre=%m" %s %d

TOC of the extracted CD

Track | Start | Length | Start sector | End sector --------------------------------------------------------- 1 | 0:00.00 | 5:22.00 | 0 | 24149 2 | 5:22.00 | 5:26.00 | 24150 | 48599 3 | 10:48.00 | 6:35.56 | 48600 | 78280 4 | 17:23.56 | 4:11.18 | 78281 | 97123 5 | 21:34.74 | 3:20.50 | 97124 | 112173 6 | 24:55.49 | 4:48.00 | 112174 | 133773 7 | 29:43.49 | 15:13.65 | 133774 | 202313 8 | 44:57.39 | 13:18.68 | 202314 | 262231 9 | 58:16.32 | 4:13.23 | 262232 | 281229

Range status and errors

Selected range

Filename M:\A\Anyone's Daughter\In Blau\LossLess\Anyone`s Daughter - In Blau.wav

Peak level 98.3 % Extraction speed 0.1 X Range quality 100.0 % Test CRC F699B48F Copy CRC F699B48F Copy OK

No errors occurred

AccurateRip summary

Track 1 not present in databaseTrack 2 not present in databaseTrack 3 not present in databaseTrack 4 not present in databaseTrack 5 not present in databaseTrack 6 not present in databaseTrack 7 not present in databaseTrack 8 not present in databaseTrack 9 not present in database

None of the tracks are present in the AccurateRip database

End of status report

==== Log checksum 852F886A6C5DC7A9EAC5D674447D03BE7B4DE103C3D4FD9ACA9AC58177558123 ====
REM GENRE "Progressive Rock"REM DATE 1982REM DISCID 8E0EA509REM COMMENT "ExactAudioCopy v1.0b1"PERFORMER "Anyone`s Daughter"TITLE "In Blau"FILE "Anyone`s Daughter - In Blau.wv" WAVE TRACK 01 AUDIO TITLE "Sonnenzeichen-Feuerzeichen" PERFORMER "Anyone`s Daughter" INDEX 01 00:00:00 TRACK 02 AUDIO TITLE "Fьr ein kleines Mдdchen" PERFORMER "Anyone`s Daughter" INDEX 00 05:20:00 INDEX 01 05:22:00 TRACK 03 AUDIO TITLE "Nichts fьr mich" PERFORMER "Anyone`s Daughter" INDEX 00 10:46:00 INDEX 01 10:48:00 TRACK 04 AUDIO TITLE "Nach diesem Tag" PERFORMER "Anyone`s Daughter" INDEX 00 17:21:57 INDEX 01 17:23:56 TRACK 05 AUDIO TITLE "La la" PERFORMER "Anyone`s Daughter" INDEX 00 21:33:01 INDEX 01 21:34:74 TRACK 06 AUDIO TITLE "Sonne" PERFORMER "Anyone`s Daughter" INDEX 00 24:53:50 INDEX 01 24:55:49 TRACK 07 AUDIO TITLE "Tanz und Tod" PERFORMER "Anyone`s Daughter" INDEX 00 29:41:50 INDEX 01 29:43:49 TRACK 08 AUDIO TITLE "Sonne: Adonis Medley (Live in Ettlingen 1982)" PERFORMER "Anyone`s Daughter" INDEX 00 44:55:40 INDEX 01 44:57:39 TRACK 09 AUDIO TITLE "Nach diesem Tag (Live in Ettlingen 1982)" PERFORMER "Anyone`s Daughter" INDEX 00 58:13:63 INDEX 01 58:16:32
3908675112 661453004 Anyones Daughter - In Blau.wav

auCDtect: CD records authenticity detector, version 0.8.2Copyright (c) 2004 Oleg Berngardt. All rights reserved.Copyright (c) 2004 Alexander Djourik. All rights reserved.------------------------------------------------------------Processing file: [Anyones Daughter - In Blau.wav]

------------------------------------------------------------This track looks like CDDA with probability 100%

------------------------------------------------------------Final Conclusion:------------------------------------------------------------These tracks looks like CDDA with probability 100%
- Harald Bareth / bass, lead vocals, voice
- Uwe Karpa / acoustic & electric guitars
- Peter Schmidt / drums, percussion
- Matthias Ulmer / keyboards, vocals


Трекер:  [ 23-Дек-2012 12:08 ]

  

Скачать .torrent

Размер .torrent файла 20 KB


Размер: 468 MB
Хэш (hash) релиза: e6df6b689f4a3b468e40ecc4d6b5889adda46462

Еще никто не оставлял запись к записи скачать торрент Anyones Daughter - In Blau . Будь первым!

!Обратная связь