Скачать через торрент музыку APOGEE feat. Gerald Heimann - Die Glaserne Wand & Schleifen 2CD - 2012, APE бесплатно без регистрации torrent

Если у вас наблюдаются проблемы со скриншотами, переходом по ссылками, скачиванием торрентов - проблемы в блокировщике рекламы AdBlock. #хорошегоДня!


Статистика раздачи
Размер:  796 MB   |    Зарегистрирован:  4 года 7 месяцев   |    .torrent скачан:  25 раз   |   
Раздают:  1  
   
Загрузка...
 
Автор Сообщение

Galfimbul

avatar Galfimbul


APOGEE feat. Gerald Heimann / Die Glaserne Wand & Schleifen 2CD

Жанр: Crossover Prog / Progressive Rock
Страна-производитель диска: Russia
Год издания: 2012
Издатель (лейбл): MALS Ltd.
Номер по каталогу: MALS 389
Страна: Germany
Аудиокодек: APE (*.ape)
Тип рипа: image+.cue
Битрейт аудио: lossless
Продолжительность: 02:18:33
Источник (релизер): домашние закрома
Наличие сканов в содержимом раздачи: да
Треклист:
CD 1:
- Die Glaserne Wand
1-1. First Movement (18:02)
1-2. Second Movement (15:39)
1-3. Third Movement (19:21)
1-4. Fourth Movement (20:14)
Time: 01:13:18
CD 2:
1-5. Fifth Movement (21:02)
- Schleifen
2-1. First Part (24:17)
2-2. Second Part (19:54)
Time: 01:05:15
Exact Audio Copy V1.0 beta 3 from 29. August 2011

Отчёт EAC об извлечении, выполненном 9. декабря 2012, 15:32

Apogee / Die Glaserrne Wand & Schleifen

Дисковод: ASUS SDRW-08D1S-U Adapter: 1 ID: 0

Режим чтения : Достоверность
Использование точного потока : Да
Отключение кэша аудио : Да
Использование указателей C2 : Нет

Коррекция смещения при чтении : 103
Способность читать области Lead-in и Lead-out : Нет
Заполнение пропущенных сэмплов тишиной : Да
Удаление блоков с тишиной в начале и конце : Нет
При вычислениях CRC использовались нулевые сэмплы : Да
Интерфейс : Встроенный Win32-интерфейс для Win NT/2000

Выходной формат : Пользовательский кодировщик
Выбранный битрейт : 1024 kBit/s
Качество : Высокий
Добавление ID3-тега : Нет
Утилита сжатия : C:\Program Files\Exact Audio Copy\Monkey's Audio\MAC.exe
Дополнительные параметры : %source% %dest% -c3000

TOC извлечённого CD

Трек | Старт | Длительность | Начальный сектор | Конечный сектор
---------------------------------------------------------------------
1 | 0:00.00 | 18:02.09 | 0 | 81158
2 | 18:02.09 | 15:39.58 | 81159 | 151641
3 | 33:41.67 | 19:21.14 | 151642 | 238730
4 | 53:03.06 | 20:15.04 | 238731 | 329859

Характеристики диапазона извлечения и сообщения об ошибках

Выбранный диапазон

Имя файла H:\!!!-МОИ РАЗДАЧИ-!!!\CD - новые\Apogee feat. Gerald Heimann (2012) - Die Glaserne Wand & Schleifen 2CD\CD-1\Apogee - Die Glaserrne Wand & Schleifen.wav

Пиковый уровень 100.0 %
Скорость извлечения 2.2 X
Качество диапазона 100.0 %
CRC теста 31F09D0E
CRC копии 31F09D0E
Копирование... OK

Ошибок не произошло

Конец отчёта

---- CUETools DB Plugin V2.1.3

[CTDB TOCID: KA5KpcouhBFm0IXrUUHJQTHB8SM-] found, Submit result: KA5KpcouhBFm0IXrUUHJQTHB8SM- has been confirmed
[7298b46c] (1/1) Accurately ripped

==== Контрольная сумма отчёта FFC5F03E3DBED9200D89005D5B00EA870C445A5616EDF722102710F1C38AA277 ====
AUDIOCHECKER v2.0 beta (build 457) - by Dester - <a href="mailto:opdester@freemail.hu" class="postLink">opdester@freemail.hu</a>
~~~~~~~~~~~~~~~~~~~~~~~~~~~~~~~~~~
-=== НЕ РЕДАКТИРУЙТЕ ЭТОТ ФАЙЛ! ===-

Путь: ...\CD-1

1 -=- Apogee - Die Glaserrne Wand & Schleifen.ape -=- CDDA (99%)

131726676
Exact Audio Copy V1.0 beta 3 from 29. August 2011

Отчёт EAC об извлечении, выполненном 9. декабря 2012, 16:42

Apogee / Die Glaserne Wand & Schleifen

Дисковод: ASUS SDRW-08D1S-U Adapter: 1 ID: 0

Режим чтения : Достоверность
Использование точного потока : Да
Отключение кэша аудио : Да
Использование указателей C2 : Нет

Коррекция смещения при чтении : 103
Способность читать области Lead-in и Lead-out : Нет
Заполнение пропущенных сэмплов тишиной : Да
Удаление блоков с тишиной в начале и конце : Нет
При вычислениях CRC использовались нулевые сэмплы : Да
Интерфейс : Встроенный Win32-интерфейс для Win NT/2000

Выходной формат : Пользовательский кодировщик
Выбранный битрейт : 1024 kBit/s
Качество : Высокий
Добавление ID3-тега : Нет
Утилита сжатия : C:\Program Files\Exact Audio Copy\Monkey's Audio\MAC.exe
Дополнительные параметры : %source% %dest% -c3000

TOC извлечённого CD

Трек | Старт | Длительность | Начальный сектор | Конечный сектор
---------------------------------------------------------------------
1 | 0:00.00 | 21:02.51 | 0 | 94700
2 | 21:02.51 | 24:17.56 | 94701 | 204031
3 | 45:20.32 | 19:55.09 | 204032 | 293665

Характеристики диапазона извлечения и сообщения об ошибках

Выбранный диапазон

Имя файла H:\!!!-МОИ РАЗДАЧИ-!!!\CD - новые\Apogee feat. Gerald Heimann (2012) - Die Glaserne Wand & Schleifen 2CD\CD-2\Apogee - Die Glaserne Wand & Schleifen.wav

Пиковый уровень 100.0 %
Скорость извлечения 2.1 X
Качество диапазона 100.0 %
CRC теста 70C0E398
CRC копии 70C0E398
Копирование... OK

Ошибок не произошло

Конец отчёта

---- CUETools DB Plugin V2.1.3

[CTDB TOCID: caYzJRM53rFMb_mMcUms4Ej.KnA-] found, Submit result: caYzJRM53rFMb_mMcUms4Ej.KnA- has been confirmed
[585934a0] (1/1) Accurately ripped

==== Контрольная сумма отчёта 8023FD7349E724D17569FE96EB02DC97E596F85C6D13108592594A8E2F90FE0E ====
AUDIOCHECKER v2.0 beta (build 457) - by Dester - <a href="mailto:opdester@freemail.hu" class="postLink">opdester@freemail.hu</a>
~~~~~~~~~~~~~~~~~~~~~~~~~~~~~~~~~~
-=== НЕ РЕДАКТИРУЙТЕ ЭТОТ ФАЙЛ! ===-

Путь: ...\CD-2

01 -=- Apogee - Die Glaserne Wand & Schleifen.ape -=- CDDA (100%)

180035956
Доп. информация: Очередной, двойной, "мрачно-упаднический" опус от Арни Шафера, явно не поднимет вам предновогоднее настроение, а уж, тем более, после праздничное. Так что, рекомендую слушать с осторожностью, особенно, в состоянии посталкогольной депрессии!
APOGEE is another one-man band from Germany. Arne Schafer plays all the instruments and sings in a "Hammillian oriented" progressive style. Although the thoughful lyrics feature in the music, there are very good intrumental textures on the background. This combination makes the music very interesting, although ground-breaking sounds are found here... there's always a component referring to "I have listened to this before somewhere". Its worth to mention that the albums are very well produced in general.
This album contains material from 1988 ? 1989, before Arne Schafer became involved with Versus X. Apogee has always been intended to push the boundaries of what could be accepted as prog, so Throbbing Gristle and Kraftwerk have as much influence as VDGG or King Crimson. On this double CD set he is joined by vocalist Gerald Heimann, and while all of the vocals are in German there is an English translation of the lyrics in the booklet. I really wasn't sure what to expect from this album, as although I have albums by all four bands mentioned above in my collection ? how would it all fit together? Also, when I saw that the five
songs on disc one (and the first song on disc two) were all described as movements of the same piece. Now, when someone states that it is a movement (as opposed to a section or individual song) they raise the stakes as normally movements are associated with classical music ? so just how good is this?Well, to be honest, not very. There are some sections where it is really very good, but that is overweighed by the times when I was wondering just how much longer it had to go on. Some of the keyboard sounds being used are incredibly dated, even allowing for the fact it was recorded more than 20 years ago. There are times when it reminded me more of some of the worse elements of electronic music that was around twenty years ago ? but there again I don't believe that I am the intended audience as this is part of a series of releasing some of Arne's archives, so there must be people out there who are demanding this. To me this just sounds like a series of demo recordings that I am unlikely to listen to again. www.mals.ru
- Arne Schafer / all instruments, vocals
With:
- Gerald Heimann / vocals


Трекер:  [ 23-Дек-2012 12:08 ]

  

Скачать .torrent

Размер .torrent файла 17 KB


Размер: 796 MB
Хэш (hash) релиза: f999f756c2bdbcb91f8fc280de77a3c7e14f1a48

Еще никто не оставлял запись к записи скачать торрент APOGEE feat. Gerald Heimann - Die Glaserne Wand & Schleifen 2CD - 2012, APE . Будь первым!

!Обратная связь