Скачать через торрент музыку Gennady Ilyin бесплатно без регистрации torrent

Если у вас наблюдаются проблемы со скриншотами, переходом по ссылками, скачиванием торрентов - проблемы в блокировщике рекламы AdBlock. #хорошегоДня!


Статистика раздачи
Размер:  289 MB   |    Зарегистрирован:  4 года 11 месяцев   |    .torrent скачан:  52 раза   |   
Раздают:  1  
   
Загрузка...
 
Автор Сообщение

Galfimbul

avatar Galfimbul


Gennady Ilyin (Little Tragedies) / The Sun of the Spirit

Жанр: Symphonic Prog / Progressive Rock
Страна-производитель диска: Russia
Год издания: 2009
Издатель (лейбл): MALS
Номер по каталогу: MALS 309
Страна: Russia
Аудиокодек: APE (*.ape)
Тип рипа: image+.cue
Битрейт аудио: lossless
Продолжительность: 00:50:04
Источник (релизер): домашние закрома
Наличие сканов в содержимом раздачи: да
Треклист:
1. Parrot (6:16)
2. Witch (7:54)
3. I Saw a Dream... (5:06)
4. Reader of Books (8:43)
5. Thoughts (6:29)
6. Marquis de Karabas (3:49)
7. Post Officer (3:53)
8. The Sun of the Spirit (3:53)

Bonus track:
9. Christmas (3:59)

Music: Gennady Ilyin
Lyrics by Nikolai Gumilev
Exact Audio Copy V1.0 beta 3 from 29. August 2011

Отчёт EAC об извлечении, выполненном 22. декабря 2012, 10:41

Gennady Ilyin / The Sun Of The Spirit

Дисковод: ASUS SDRW-08D1S-U Adapter: 1 ID: 0

Режим чтения : ДостоверностьИспользование точного потока : ДаОтключение кэша аудио : ДаИспользование указателей C2 : Нет

Коррекция смещения при чтении : 103Способность читать области Lead-in и Lead-out : НетЗаполнение пропущенных сэмплов тишиной : ДаУдаление блоков с тишиной в начале и конце : НетПри вычислениях CRC использовались нулевые сэмплы : ДаИнтерфейс : Встроенный Win32-интерфейс для Win NT/2000

Выходной формат : Пользовательский кодировщикВыбранный битрейт : 1024 kBit/sКачество : ВысокийДобавление ID3-тега : НетУтилита сжатия : C:\Program Files\Exact Audio Copy\Monkey's Audio\MAC.exeДополнительные параметры : %source% %dest% -c3000

TOC извлечённого CD

Трек | Старт | Длительность | Начальный сектор | Конечный сектор --------------------------------------------------------------------- 1 | 0:00.00 | 6:16.11 | 0 | 28210 2 | 6:16.11 | 7:54.50 | 28211 | 63810 3 | 14:10.61 | 5:06.03 | 63811 | 86763 4 | 19:16.64 | 8:43.20 | 86764 | 126008 5 | 28:00.09 | 6:29.60 | 126009 | 155243 6 | 34:29.69 | 3:49.35 | 155244 | 172453 7 | 38:19.29 | 3:53.42 | 172454 | 189970 8 | 42:12.71 | 3:51.72 | 189971 | 207367 9 | 46:04.68 | 3:59.69 | 207368 | 225361

Характеристики диапазона извлечения и сообщения об ошибках

Выбранный диапазон

Имя файла H:\!!!-МОИ РАЗДАЧИ-!!!\cd\Gennady Ilyin (Little Tragedies) (1998) - The Sun of the Spirit (2009)\Gennady Ilyin - The Sun Of The Spirit.wav

Пиковый уровень 100.0 % Скорость извлечения 2.0 X Качество диапазона 100.0 % CRC теста 87297B91 CRC копии 87297B91 Копирование... OK

Ошибок не произошло

Конец отчёта

---- CUETools DB Plugin V2.1.3

[CTDB TOCID: Edp0MpKbOzhBOrUHKOXiKX05DlU-] disk not present in database, Submit result: Edp0MpKbOzhBOrUHKOXiKX05DlU- has been uploaded

==== Контрольная сумма отчёта 4B941FA98208DC28270A0F82CAB13B9C03FE5B1C3E89CC78EB3AC4825C08327B ====
AUDIOCHECKER v2.0 beta (build 457) - by Dester - <a href="mailto:opdester@freemail.hu" class="postLink">opdester@freemail.hu</a>~~~~~~~~~~~~~~~~~~~~~~~~~~~~~~~~~~-=== НЕ РЕДАКТИРУЙТЕ ЭТОТ ФАЙЛ! ===-

Путь: ...\Gennady Ilyin (Little Tragedies) (1998) - The Sun of the Spirit (2009)

1 -=- Gennady Ilyin - The Sun Of The Spirit.ape -=- CDDA (99%)

186342772
Доп. информация: Пожалуй, последний (пока) альбом "Маленьких Трагедий", вышедший на CD, и не представленный на траккере в LL качестве, и , будем надеяться, не последний. Хочется пожелать этим замечательным музыкантам, успехов и всяческих благ в наступающем году, а нам с вами: радости и наслаждения их прекрасной музыкой!
The album has been recorded in August 1998 at Art Technology (Moscow) as a solo-album by Gennady Ilyin and released by the label

"Boheme Music" in 2000 with the name "Little Tragedies" thanks to the great help of Igor Mikhel (guitar) and Evgeny Shchukin

(sound engineering). English names of songs can be different at different sites (original names were in Russian, titles on 2009

MALS reissue are in English).
- Gennady Ilyin / keyboards, vocals
- Igor Mikhel / guitars
Выкладывается по просьбе уважаемого kdenlive.

Трекер:  [ 23-Дек-2012 12:08 ]

  

Скачать .torrent

Размер .torrent файла 12 KB


Размер: 289 MB
Хэш (hash) релиза: 4ce327f6b28e14e368ebb1d3d90b2d8a9eb62cfd

Еще никто не оставлял запись к записи скачать торрент Gennady Ilyin . Будь первым!

!Обратная связь