Скачать через торрент музыку Kaizen - Gargula - 1994, FLAC бесплатно без регистрации torrent

Если у вас наблюдаются проблемы со скриншотами, переходом по ссылками, скачиванием торрентов - проблемы в блокировщике рекламы AdBlock. #хорошегоДня!


Статистика раздачи
Размер:  300 MB   |    Зарегистрирован:  4 года 8 месяцев   |    .torrent скачан:  27 раз   |   
Раздают:  1  
   
Загрузка...
 
Автор Сообщение

Galfimbul

avatar Galfimbul


Kaizen / Gargula

Жанр: Symphonic Progressive
Страна-производитель диска: Canada
Год издания: 1994
Издатель (лейбл): Progressive Rock Worldwide
Номер по каталогу: PRW 018
Страна: Brazil
Аудиокодек: FLAC (*.flac)
Тип рипа: image+.cue
Битрейт аудио: lossless
Продолжительность: 0:56:09.18
Источник (релизер): личный диск
Наличие сканов в содержимом раздачи: да
Треклист:
01. Abertura [0:04:48.55]
02. Zenith [0:12:56.40]
03. Gargula [0:06:03.03]
04. Noturno [0:06:30.07]
05. Runas [0:09:44.03]
06. Horda [0:06:54.30]
07. Kaizen [0:09:12.30]
Exact Audio Copy V1.0 beta 3 from 29. August 2011

Отчёт EAC об извлечении, выполненном 22. декабря 2012, 13:11

Kaizen / Gargula

Дисковод: TSSTcorpCDDVDW TS-L633J Adapter: 0 ID: 1

Режим чтения : ДостоверностьИспользование точного потока : ДаОтключение кэша аудио : ДаИспользование указателей C2 : Нет

Коррекция смещения при чтении : 6Способность читать области Lead-in и Lead-out : НетЗаполнение пропущенных сэмплов тишиной : ДаУдаление блоков с тишиной в начале и конце : НетПри вычислениях CRC использовались нулевые сэмплы : ДаИнтерфейс : Установленный внешний ASPI-интерфейс

Выходной формат : Пользовательский кодировщикВыбранный битрейт : 128 kBit/sКачество : ВысокийДобавление ID3-тега : НетУтилита сжатия : C:\Program Files\Exact Audio Copy\FLAC\FLAC.EXEДополнительные параметры : -6 -V -T "ARTIST=%artist%" -T "TITLE=%title%" -T "ALBUM=%albumtitle%" -T "DATE=%year%" -T "TRACKNUMBER=%tracknr%" -T "GENRE=%genre%" -T "COMMENT=%comment%" -T "BAND=%albuminterpret%" -T "ALBUMARTIST=%albuminterpret%" -T "COMPOSER=%composer%" %haslyrics%--tag-from-file=LYRICS="%lyricsfile%"%haslyrics% -T "DISCNUMBER=%cdnumber%" -T "TOTALDISCS=%totalcds%" -T "TOTALTRACKS=%numtracks%" %hascover%--picture="%coverfile%"%hascover% %source% -o %dest%

TOC извлечённого CD

Трек | Старт | Длительность | Начальный сектор | Конечный сектор --------------------------------------------------------------------- 1 | 0:00.32 | 4:48.55 | 32 | 21686 2 | 4:49.12 | 12:56.40 | 21687 | 79926 3 | 17:45.52 | 6:03.03 | 79927 | 107154 4 | 23:48.55 | 6:30.07 | 107155 | 136411 5 | 30:18.62 | 9:44.03 | 136412 | 180214 6 | 40:02.65 | 6:54.30 | 180215 | 211294 7 | 46:57.20 | 9:12.30 | 211295 | 252724

Характеристики диапазона извлечения и сообщения об ошибках

Выбранный диапазон

Имя файла D:\РИПЫ\KAIZEN\Kaizen - Gargula.wav

Пиковый уровень 100.0 % Скорость извлечения 2.9 X Качество диапазона 100.0 % CRC теста E2908F43 CRC копии E2908F43 Копирование... OK

Ошибок не произошло

AccurateRip: сводка

Трек 1 отсутствует в базе данныхТрек 2 отсутствует в базе данныхТрек 3 отсутствует в базе данныхТрек 4 отсутствует в базе данныхТрек 5 отсутствует в базе данныхТрек 6 отсутствует в базе данныхТрек 7 отсутствует в базе данных

Ни одного трека нет в базе AccurateRip

Конец отчёта

---- CUETools DB Plugin V2.1.3

[CTDB TOCID: FvOIJYzsWPP8J7CfvxjEO0otY28-] disk not present in database, Submit result: discs with pregaps not supported in this protocol version

==== Контрольная сумма отчёта 4258F20FF401F9EC3E131EAD48B4644C61D11F6026229886BA989A3BB984CFE9 ====
Kaizen biography
Violinist Kleber Vogel (formerly of Quaterna Requiem) formed Kaizen in 1992, with Alvaro Seabra, Carlos Albuquerque, Ronaldo Dos Guaranys, and Cleto Castañon. Their only release is 1994's Gargula, and features guest musicians playing flute, oboe, bassoon, and cello.. Vogel is the main composer, and describes the music as symphonic prog that is intended to touch the deepest feelings of the listener. It is clearly classical influenced, while incorporating jazz and rock rhythms.

Vogel studied guitar, mandolin, and violin at the Villa-Lobos Music School. His pedigree also includes extensive work with the Brazilian Symphony Orchestra, the Philharmonic Orchestra of Rio de Janeiro, and the Federal University of Rio de Janeiro Post Graduate Chamber Orchestra.

The band has gone through lineup changes, and apparently still plays. However, they have released no new material. The most current known lineup consists of William James Murray, Wagner André, Saulo Battesini and Mario Leme, and Kleber Vogel.

This is recommended for fans of the Violin, and Brazilian Prog.

http://www.progarchives.com/artist.asp?id=182
Единственный на сегодня альбом этой замечательной проговой бразильской команды.
Послушайте, какая у них скрипочка зажигает...
Line-up / Musicians
- Carlos Albuquerque / guitars
- Cleto Castañon / drums
- Ronaldo Dos Guaranys / keyboards
- Alvaro Seabra / bass, keyboards, electronic percussion
- Kleber Vogel / acoustic & electric Midi violins, mandoline
GUESTS:
- Mauro Avila / bassoon
- Francisco Gonçalves / oboe
- Roberto Meier / flute
- Duo Santoro / celli


Трекер:  [ 23-Дек-2012 12:07 ]

  

Скачать .torrent

Размер .torrent файла 12 KB


Размер: 300 MB
Хэш (hash) релиза: a6415f962dee1cfd276e591e3900600f429e88a2

Еще никто не оставлял запись к записи скачать торрент Kaizen - Gargula - 1994, FLAC . Будь первым!

!Обратная связь