Скачать через торрент музыку Box of Frogs - Box of Frogs бесплатно без регистрации torrent

Если у вас наблюдаются проблемы со скриншотами, переходом по ссылками, скачиванием торрентов - проблемы в блокировщике рекламы AdBlock. #хорошегоДня!


Статистика раздачи
Размер:  319 MB   |    Зарегистрирован:  4 года 10 месяцев   |    .torrent скачан:  23 раза   |   
Раздают:  1  
   
Загрузка...
 
Автор Сообщение

Galfimbul

avatar Galfimbul


Box of Frogs / Box of Frogs (1984)

Жанр: Rock
Год издания: 2011
Аудиокодек: FLAC (*.flac)
Тип рипа: image+.cue
Битрейт аудио: lossless
Продолжительность: 46:50
Источник (релизер): my disc
Наличие сканов в содержимом раздачи: да
Треклист:
01. Back Where I Started [0:03:57.66]
02. Harder [0:03:41.28]
03. Another Wasted Day [0:04:19.12]
04. Love Inside You [0:02:49.20]
05. The Edge [0:04:02.59]
06. Two Steps Ahead [0:04:34.46]
07. Into The Dark [0:04:09.74]
08. Just A Boy Again [0:05:40.40]
09. Poor Boy [0:04:23.18]
10. X-Tracks - Bonus [0:04:07.45]
11. Nine Lives - Bonus [0:05:03.58]
Exact Audio Copy V0.99 prebeta 4 from 23. January 2008

Отчёт EAC об извлечении, выполненном 22. декабря 2012, 13:35

Box Of Frogs / Box Of Frogs (1984)

Дисковод: ASUS DRW-1814BL Adapter: 1 ID: 0

Режим чтения : ДостоверностьИспользование точного потока : ДаОтключение кэша аудио : ДаИспользование указателей C2 : Нет

Коррекция смещения при чтении : 6Способность читать области Lead-in и Lead-out : НетЗаполнение пропущенных сэмплов тишиной : ДаУдаление блоков с тишиной в начале и конце : НетПри вычислениях CRC использовались нулевые сэмплы : ДаИнтерфейс : Установленный внешний ASPI-интерфейс

Выходной формат : Пользовательский кодировщикВыбранный битрейт : 1024 kBit/sКачество : ВысокийДобавление ID3-тэга : НетУтилита сжатия : C:\Program Files\Exact Audio Copy\FLAC\FLAC.EXEДополнительные параметры : -6 -V -T "ARTIST=%a" -T "TITLE=%t" -T "ALBUM=%g" -T "DATE=%y" -T "TRACKNUMBER=%n" -T "GENRE=%m" -T "COMMENT=%e" %s -o %d

TOC извлечённого CD

Трек | Старт | Длительность | Начальный сектор | Конечный сектор --------------------------------------------------------------------- 1 | 0:00.00 | 3:57.66 | 0 | 17840 2 | 3:57.66 | 3:41.28 | 17841 | 34443 3 | 7:39.19 | 4:19.12 | 34444 | 53880 4 | 11:58.31 | 2:49.20 | 53881 | 66575 5 | 14:47.51 | 4:02.59 | 66576 | 84784 6 | 18:50.35 | 4:34.46 | 84785 | 105380 7 | 23:25.06 | 4:09.74 | 105381 | 124129 8 | 27:35.05 | 5:40.40 | 124130 | 149669 9 | 33:15.45 | 4:23.18 | 149670 | 169412 10 | 37:38.63 | 4:07.45 | 169413 | 187982 11 | 41:46.33 | 5:03.58 | 187983 | 210765

Характеристики диапазона извлечения и сообщения об ошибках

Выбранный диапазон

Имя файла D:\loSSleSS\box of frogs'84\Box Of Frogs - Box Of Frogs (1984).wav

Пиковый уровень 99.4 % Качество диапазона 100.0 % CRC теста 4E8862DF CRC копии 4E8862DF Копирование... OK

Ошибок не произошло

AccurateRip: сводка

Трек 1 точное извлечение (доверие 1) [77D63B71]Трек 2 точное извлечение (доверие 1) [6B86BB01]Трек 3 точное извлечение (доверие 1) [618C455D]Трек 4 точное извлечение (доверие 1) [B75D04FE]Трек 5 точное извлечение (доверие 1) [244941FC]Трек 6 точное извлечение (доверие 1) [05C5AE49]Трек 7 точное извлечение (доверие 1) [948ACAA7]Трек 8 точное извлечение (доверие 1) [011285AD]Трек 9 точное извлечение (доверие 1) [A3884D21]Трек 10 точное извлечение (доверие 1) [615514A5]Трек 11 точное извлечение (доверие 1) [9CE10E2F]

Все треки извлечены точно

Конец отчёта
«Box of Frogs» – некогда популярная британская рок-группа. Команда «Box of Frogs» была сформирована в Лондоне в 1983 году, а в 1986 году уже распалась. В состав этого творческого коллектива входили такие музыканты, как вокалист, гитарист, ударник и клавишник Джон Фидлер (John Fiddler), ритм-гитарист, перкуссионист и бэк-вокалист Крис Дрейа (Chris Dreja), бас-гитарист, бэк-вокалист, перкуссионист и клавишник Пол Самвелл-Смит (Paul Samwell-Smith), а также ударник, перкуссионист и бэк-вокалист Джим МакКарти (Jim McCarty).Трое из участников этой команды (Дрейа, МакКарти и Самвелл-Смит) играли вместе и раньше в составе невероятно популярной в 60-е годы двадцатого века группе «The Yardbirds». Позднее к ним присоединился и Фидлер, который до этого пел в коллективах «Medicine Head» и «British Lions».Свой дебютный альбом они записали и издали в 1984 году. Пластинка появилась в продаже под названием «Box of Frogs» и содержала в себе девять композиций. Продюсером этого диска стал Пол Самвелл-Смит (Paul Samwell-Smith). К студийной работе они привлекли ряд других музыкантов: гитариста Джефа Бека (Jeff Beck), клавишника Питера-Джона Витесе (Peter-John Vettese), гитариста Рори Галахера (Rory Gallagher) и некоторых других. Альбом пользовался большой популярностью у публики, а заглавная композиция «Back Where I Started» попала в десятку лучших треков национального хит-парада Соединенных Штатов Америки.В 1986 году состоялся официальный релиз уже второй пластинки «Box of Frogs», которая распространялась под названием «Strange Land». На этот раз большая часть песен была исполнена Фидлером в дуэте с такими вокалистами, как Грэхэм Паркер (Graham Parker), Иан Дьюри (Ian Dury) и Роджер Чепмэн (Roger Chapman). Всего на этом диске было записано девять основных и один бонусный трек.Несмотря на то что пластинки были достаточно популярными, группа распалась в 1986 году, а спустя несколько лет музыканты возобновили свою совместную деятельность в рамках коллектива «The Yardbirds», который существует и по сей день.Стоит отметить, что два лонгплея «Box of Frogs» были переизданы в середине 90-х годов двадцатого века звукозаписывающей компанией «Renaissance Records».
John Fiddler — lead and backing vocals, guitars, percussion, synthesizers
Chris Dreja — rhythm guitar, percussion, occasional backing vocals
Paul Samwell-Smith — bass guitar, backing vocals, percussion, synthesizers
Jim McCarty — drums, percussion, backing vocals
&:
Dzal Martin — guitar, vocals, percussion
Jeff Beck — guitar
Mark Feltham — harmonica
Peter-John Vettese — keyboards
Ray Majors — guitar
Max Middleton — keyboards
Rory Gallagher — guitar
Guy Barker — trumpet
Geraint Watkins — piano


Трекер:  [ 23-Дек-2012 12:07 ]

  

Скачать .torrent

Размер .torrent файла 13 KB


Размер: 319 MB
Хэш (hash) релиза: b761b28d99320dc2d031bbe8d69e7606bbe3b104

Торренты, похожие на Box of Frogs - Box of Frogs скачать торрент

Форум Название Автор Размер S L Добавлен
Rосk | Mеtаl | Аltеrnаtivе, Рunk, Indереndеnt (mр3) ·· (Classic Rock, Blues-Rock) Box of Frogs - Discography (3 CD) - 1984-2011, MP3, 320 kbps Galfimbul 417835258398 MB 0 0 1490876504

15:21

30-Мар-17

Rосk | Mеtаl | Аltеrnаtivе, Рunk, Indереndеnt (losslеss) ·· (Rock) Box of Frogs - Strange Land (1986) - 2011, FLAC (image+.cue), lossless Galfimbul 288393545275 MB 0 0 1389953972

13:19

17-Янв-14

Еще никто не оставлял запись к записи скачать торрент Box of Frogs - Box of Frogs . Будь первым!

!Обратная связь