Скачать через торрент музыку Frank Zappa - Finer Moments бесплатно без регистрации torrent

Если у вас наблюдаются проблемы со скриншотами, переходом по ссылками, скачиванием торрентов - проблемы в блокировщике рекламы AdBlock. #хорошегоДня!


Статистика раздачи
Размер:  475 MB   |    Зарегистрирован:  4 года 10 месяцев   |    .torrent скачан:  25 раз   |   
Раздают:  1  
   
Загрузка...
 
Автор Сообщение

Galfimbul

avatar Galfimbul


Frank Zappa / Finer Moments (2CD)

Жанр: Avant-Prog, Experimental Rock, Fusion
Страна-производитель диска: US
Год издания: 2012
Издатель (лейбл): Zappa Records
Номер по каталогу: ZR 3894
Страна: US
Аудиокодек: FLAC (*.flac)
Тип рипа: tracks+.cue
Битрейт аудио: lossless
Продолжительность: 41:53 + 40:53
Источник (релизер): waffles.fm
Наличие сканов в содержимом раздачи: нет
Треклист:
1 Intro 1:20
2 Sleazette 3:33
3 Mozart Piano Sonata In Bb 6:21
4 The Walking Zombie Music 3:23
5 The Old Curiosity Shoppe 7:07
6 You Never Know Who Your Friends Are 2:20
7 Uncle Rhebus 17:45
1 Music From The Big Squeeze 0:42
2 Enigmas 1 Thru 5 8:15
3 Pumped And Waxed 4:19
4 There Is No Heaven From Where Slogans Go To Die 4:37
5 Squeeze It Squeeze It Squeeze It 3:17
6 The Subcutaneous Peril 19:41
Exact Audio Copy V1.0 beta 3 from 29. August 2011

EAC extraction logfile from 19. December 2012, 13:05

Frank Zappa / Finer Moments

Used drive : LITE-ON DVDRW LH-20A1L Adapter: 4 ID: 0

Read mode : Secure
Utilize accurate stream : Yes
Defeat audio cache : Yes
Make use of C2 pointers : No

Read offset correction : 6
Overread into Lead-In and Lead-Out : No
Fill up missing offset samples with silence : Yes
Delete leading and trailing silent blocks : No
Null samples used in CRC calculations : Yes
Used interface : Native Win32 interface for Win NT & 2000
Gap handling : Appended to previous track

Used output format : User Defined Encoder
Selected bitrate : 1024 kBit/s
Quality : High
Add ID3 tag : No
Command line compressor : C:\Program Files (x86)\Exact Audio Copy\FLAC\FLAC.EXE
Additional command line options : -6 -V -T "ARTIST=%artist%" -T "TITLE=%title%" -T "ALBUM=%albumtitle%" -T "DATE=%year%" -T "TRACKNUMBER=%tracknr%" -T "GENRE=%genre%" -T "COMMENT=%comment%" -T "BAND=%albuminterpret%" -T "ALBUMARTIST=%albuminterpret%" -T "COMPOSER=%composer%" %haslyrics%--tag-from-file=LYRICS="%lyricsfile%"%haslyrics% -T "DISCNUMBER=%cdnumber%" -T "TOTALDISCS=%totalcds%" -T "TOTALTRACKS=%numtracks%" %hascover%--picture="%coverfile%"%hascover% %source% -o %dest%

TOC of the extracted CD

Track | Start | Length | Start sector | End sector
---------------------------------------------------------
1 | 0:00.00 | 1:20.05 | 0 | 6004
2 | 1:20.05 | 3:33.15 | 6005 | 21994
3 | 4:53.20 | 6:21.52 | 21995 | 50621
4 | 11:14.72 | 3:23.13 | 50622 | 65859
5 | 14:38.10 | 7:09.10 | 65860 | 98044
6 | 21:47.20 | 2:20.60 | 98045 | 108604
7 | 24:08.05 | 17:45.40 | 108605 | 188519

Track 1

Filename C:\EAC rips\Frank Zappa - Finer Moments (2012) [FLAC]\01 - Intro.wav

Pre-gap length 0:00:02.00

Peak level 73.0 %
Extraction speed 1.5 X
Track quality 100.0 %
Test CRC A483FA31
Copy CRC A483FA31
Track not present in AccurateRip database
Copy OK

Track 2

Filename C:\EAC rips\Frank Zappa - Finer Moments (2012) [FLAC]\02 - Sleazette.wav

Peak level 96.9 %
Extraction speed 2.0 X
Track quality 100.0 %
Test CRC 839A033F
Copy CRC 839A033F
Track not present in AccurateRip database
Copy OK

Track 3

Filename C:\EAC rips\Frank Zappa - Finer Moments (2012) [FLAC]\03 - Mozart Piano Sonata in B♭.wav

Peak level 96.9 %
Extraction speed 2.4 X
Track quality 100.0 %
Test CRC D8D93FA7
Copy CRC D8D93FA7
Track not present in AccurateRip database
Copy OK

Track 4

Filename C:\EAC rips\Frank Zappa - Finer Moments (2012) [FLAC]\04 - The Walking Zombie Music.wav

Peak level 98.7 %
Extraction speed 2.0 X
Track quality 99.9 %
Test CRC D0956B95
Copy CRC D0956B95
Track not present in AccurateRip database
Copy OK

Track 5

Filename C:\EAC rips\Frank Zappa - Finer Moments (2012) [FLAC]\05 - The Old Curiosity Shoppe.wav

Peak level 98.7 %
Extraction speed 2.8 X
Track quality 100.0 %
Test CRC 7112C6F2
Copy CRC 7112C6F2
Track not present in AccurateRip database
Copy OK

Track 6

Filename C:\EAC rips\Frank Zappa - Finer Moments (2012) [FLAC]\06 - You Never Know Who Your Friends Are.wav

Pre-gap length 0:00:01.30

Peak level 87.2 %
Extraction speed 2.5 X
Track quality 100.0 %
Test CRC 539651F1
Copy CRC 539651F1
Track not present in AccurateRip database
Copy OK

Track 7

Filename C:\EAC rips\Frank Zappa - Finer Moments (2012) [FLAC]\07 - Uncle Rhebus.wav

Peak level 98.7 %
Extraction speed 3.5 X
Track quality 100.0 %
Test CRC 6A2BC1C7
Copy CRC 6A2BC1C7
Track not present in AccurateRip database
Copy OK

None of the tracks are present in the AccurateRip database

No errors occurred

End of status report

---- CUETools DB Plugin V2.1.4

[CTDB TOCID: CnthEh_LxR0NmkGuu6cFYSKCsPs-] disk not present in database
Submit result: CnthEh_LxR0NmkGuu6cFYSKCsPs- has been uploaded

==== Log checksum DD970604A728537BD57CFFAB22CA7F4C74E3D57C36D80D5A357ADF09FD032DE7 ====
Exact Audio Copy V1.0 beta 3 from 29. August 2011

EAC extraction logfile from 19. December 2012, 13:40

Frank Zappa / Finer Moments

Used drive : LITE-ON DVDRW LH-20A1L Adapter: 4 ID: 0

Read mode : Secure
Utilize accurate stream : Yes
Defeat audio cache : Yes
Make use of C2 pointers : No

Read offset correction : 6
Overread into Lead-In and Lead-Out : No
Fill up missing offset samples with silence : Yes
Delete leading and trailing silent blocks : No
Null samples used in CRC calculations : Yes
Used interface : Native Win32 interface for Win NT & 2000
Gap handling : Appended to previous track

Used output format : User Defined Encoder
Selected bitrate : 1024 kBit/s
Quality : High
Add ID3 tag : No
Command line compressor : C:\Program Files (x86)\Exact Audio Copy\FLAC\FLAC.EXE
Additional command line options : -6 -V -T "ARTIST=%artist%" -T "TITLE=%title%" -T "ALBUM=%albumtitle%" -T "DATE=%year%" -T "TRACKNUMBER=%tracknr%" -T "GENRE=%genre%" -T "COMMENT=%comment%" -T "BAND=%albuminterpret%" -T "ALBUMARTIST=%albuminterpret%" -T "COMPOSER=%composer%" %haslyrics%--tag-from-file=LYRICS="%lyricsfile%"%haslyrics% -T "DISCNUMBER=%cdnumber%" -T "TOTALDISCS=%totalcds%" -T "TOTALTRACKS=%numtracks%" %hascover%--picture="%coverfile%"%hascover% %source% -o %dest%

TOC of the extracted CD

Track | Start | Length | Start sector | End sector
---------------------------------------------------------
1 | 0:00.00 | 0:42.07 | 0 | 3156
2 | 0:42.07 | 8:15.43 | 3157 | 40324
3 | 8:57.50 | 4:19.07 | 40325 | 59756
4 | 13:16.57 | 4:37.10 | 59757 | 80541
5 | 17:53.67 | 3:18.05 | 80542 | 95396
6 | 21:11.72 | 19:41.15 | 95397 | 183986

Track 1

Filename C:\EAC rips\Frank Zappa - Finer Moments (2012) [FLAC]\Disc Two\01 - Music From ''The Big Squeeze''.wav

Pre-gap length 0:00:02.00

Peak level 83.7 %
Extraction speed 1.2 X
Track quality 100.0 %
Test CRC CC065E33
Copy CRC CC065E33
Track not present in AccurateRip database
Copy OK

Track 2

Filename C:\EAC rips\Frank Zappa - Finer Moments (2012) [FLAC]\Disc Two\02 - Enigmas 1 Thru 5.wav

Peak level 99.8 %
Extraction speed 2.3 X
Track quality 100.0 %
Test CRC 57ABEDAC
Copy CRC 57ABEDAC
Track not present in AccurateRip database
Copy OK

Track 3

Filename C:\EAC rips\Frank Zappa - Finer Moments (2012) [FLAC]\Disc Two\03 - Pumped And Waxed.wav

Peak level 98.7 %
Extraction speed 2.4 X
Track quality 100.0 %
Test CRC A7BBD74B
Copy CRC A7BBD74B
Track not present in AccurateRip database
Copy OK

Track 4

Filename C:\EAC rips\Frank Zappa - Finer Moments (2012) [FLAC]\Disc Two\04 - ''There Is No Heaven From Where Slogans Go To Die''.wav

Peak level 98.8 %
Extraction speed 2.6 X
Track quality 100.0 %
Test CRC 2C3E8316
Copy CRC 2C3E8316
Track not present in AccurateRip database
Copy OK

Track 5

Filename C:\EAC rips\Frank Zappa - Finer Moments (2012) [FLAC]\Disc Two\05 - Squeeze It. Squeeze It. Squeeze It.wav

Peak level 93.2 %
Extraction speed 2.7 X
Track quality 100.0 %
Test CRC 2F545555
Copy CRC 2F545555
Track not present in AccurateRip database
Copy OK

Track 6

Filename C:\EAC rips\Frank Zappa - Finer Moments (2012) [FLAC]\Disc Two\06 - The Subcutaneous Peril.wav

Pre-gap length 0:00:00.57

Peak level 94.3 %
Extraction speed 3.5 X
Track quality 100.0 %
Test CRC 3144E7D8
Copy CRC 3144E7D8
Track not present in AccurateRip database
Copy OK

None of the tracks are present in the AccurateRip database

No errors occurred

End of status report

---- CUETools DB Plugin V2.1.4

[CTDB TOCID: A9Jib7OJcJy9kIiWbhP7OTjjtHM-] disk not present in database
Submit result: A9Jib7OJcJy9kIiWbhP7OTjjtHM- has been uploaded

==== Log checksum FBEDF92DEE9478B77BDF452E8D9B491D9F223E9AF21D55A6CB0023A427E0DC88 ====
REM GENRE Rock
REM DATE 2012
REM DISCID 5609D107
REM COMMENT "ExactAudioCopy v1.0b3"
CATALOG 0824302781623
PERFORMER "Frank Zappa"
TITLE "Finer Moments"
FILE "01 - Intro.wav" WAVE
TRACK 01 AUDIO
TITLE "Intro"
PERFORMER "Frank Zappa"
ISRC USZPE0700038
INDEX 01 00:00:00
FILE "02 - Sleazette.wav" WAVE
TRACK 02 AUDIO
TITLE "Sleazette"
PERFORMER "Frank Zappa"
ISRC USZPE0700039
INDEX 01 00:00:00
FILE "03 - Mozart Piano Sonata in Bb.wav" WAVE
TRACK 03 AUDIO
TITLE "Mozart Piano Sonata in B."
PERFORMER "Frank Zappa"
ISRC USZPE0700039
INDEX 01 00:00:00
FILE "04 - The Walking Zombie Music.wav" WAVE
TRACK 04 AUDIO
TITLE "The Walking Zombie Music"
PERFORMER "Frank Zappa"
ISRC USZPE0700041
INDEX 01 00:00:00
FILE "05 - The Old Curiosity Shoppe.wav" WAVE
TRACK 05 AUDIO
TITLE "The Old Curiosity Shoppe"
PERFORMER "Frank Zappa"
ISRC USZPE0700042
INDEX 01 00:00:00
TRACK 06 AUDIO
TITLE "You Never Know Who Your Friends Are"
PERFORMER "Frank Zappa"
ISRC USZPE0700043
INDEX 00 07:07:55
FILE "06 - You Never Know Who Your Friends Are.wav" WAVE
INDEX 01 00:00:00
FILE "07 - Uncle Rhebus.wav" WAVE
TRACK 07 AUDIO
TITLE "Uncle Rhebus"
PERFORMER "Frank Zappa"
ISRC USZPE0700044
INDEX 01 00:00:00
REM GENRE Rock
REM DATE 2012
REM DISCID 4D099506
REM COMMENT "ExactAudioCopy v1.0b3"
CATALOG 0824302781722
PERFORMER "Frank Zappa"
TITLE "Finer Moments"
FILE "01 - Music From ''The Big Squeeze''.wav" WAVE
TRACK 01 AUDIO
TITLE "Music From 'The Big Squeeze'"
PERFORMER "Frank Zappa"
ISRC USZPE0700045
INDEX 01 00:00:00
FILE "02 - Enigmas 1 Thru 5.wav" WAVE
TRACK 02 AUDIO
TITLE "Enigmas 1 Thru 5"
PERFORMER "Frank Zappa"
ISRC USZPE0700046
INDEX 01 00:00:00
FILE "03 - Pumped And Waxed.wav" WAVE
TRACK 03 AUDIO
TITLE "Pumped And Waxed"
PERFORMER "Frank Zappa"
ISRC USZPE0700047
INDEX 01 00:00:00
FILE "04 - ''There Is No Heaven From Where Slogans Go To Die''.wav" WAVE
TRACK 04 AUDIO
TITLE "'There Is No Heaven From Where Slogans Go To Die'"
PERFORMER "Frank Zappa"
ISRC USZPE0700047
INDEX 01 00:00:00
FILE "05 - Squeeze It. Squeeze It. Squeeze It.wav" WAVE
TRACK 05 AUDIO
TITLE "Squeeze It. Squeeze It. Squeeze It"
PERFORMER "Frank Zappa"
ISRC USZPE0700049
INDEX 01 00:00:00
TRACK 06 AUDIO
TITLE "The Subcutaneous Peril"
PERFORMER "Frank Zappa"
ISRC USZPE0700050
INDEX 00 03:17:23
FILE "06 - The Subcutaneous Peril.wav" WAVE
INDEX 01 00:00:00
d:\>d:\aucdtect -d/-m0 d:\zzz\*.wavauCDtect: CD records authenticity detector, version 0.8.2Copyright (c) 2004 Oleg Berngardt. All rights reserved.Copyright (c) 2004 Alexander Djourik. All rights reserved.------------------------------------------------------------Processing file: [01. Intro.wav]

------------------------------------------------------------This track looks like CDDA with probability 100%

------------------------------------------------------------Processing file: [01. Music From 'The Big Squeeze'.wav]

------------------------------------------------------------This track looks like CDDA with probability 99%

------------------------------------------------------------Processing file: [02. Enigmas 1 Thru 5.wav]

------------------------------------------------------------This track looks like CDDA with probability 100%

------------------------------------------------------------Processing file: [02. Sleazette.wav]

------------------------------------------------------------This track looks like CDDA with probability 100%

------------------------------------------------------------Processing file: [03. Mozart Piano Sonata in B.wav]

------------------------------------------------------------This track looks like CDDA with probability 99%

------------------------------------------------------------Processing file: [03. Pumped And Waxed.wav]

------------------------------------------------------------This track looks like CDDA with probability 100%

------------------------------------------------------------Processing file: [04. 'There Is No Heaven From Where Slogans Go To Die'.wav]

------------------------------------------------------------This track looks like CDDA with probability 99%

------------------------------------------------------------Processing file: [04. The Walking Zombie Music.wav]

------------------------------------------------------------This track looks like CDDA with probability 100%

------------------------------------------------------------Processing file: [05. Squeeze It. Squeeze It. Squeeze It.wav]

------------------------------------------------------------This track looks like CDDA with probability 100%

------------------------------------------------------------Processing file: [05. The Old Curiosity Shoppe.wav]

------------------------------------------------------------This track looks like CDDA with probability 100%

------------------------------------------------------------Processing file: [06. The Subcutaneous Peril.wav]

------------------------------------------------------------This track looks like CDDA with probability 100%

------------------------------------------------------------Processing file: [06. You Never Know Who Your Friends Are.wav]

------------------------------------------------------------This track looks like CDDA with probability 100%

------------------------------------------------------------Processing file: [07. Uncle Rhebus.wav]

------------------------------------------------------------This track looks like CDDA with probability 99%

------------------------------------------------------------Final Conclusion:------------------------------------------------------------These tracks looks like CDDA with probability 100%
Доп. информация: Альбом официально вышел три дня назад, 18 декабря. К сожалению, никакой сопутствующей информации пока найти не удалось.

Трекер:  [ 23-Дек-2012 12:07 ]

  

Скачать .torrent

Размер .torrent файла 20 KB


Размер: 475 MB
Хэш (hash) релиза: b67ed832f44065ac1bbbb8798c9585508df670b5

Еще никто не оставлял запись к записи скачать торрент Frank Zappa - Finer Moments . Будь первым!

!Обратная связь