Скачать через торрент музыку Anyones Daughter - Anyones Daughter бесплатно без регистрации torrent

Если у вас наблюдаются проблемы со скриншотами, переходом по ссылками, скачиванием торрентов - проблемы в блокировщике рекламы AdBlock. #хорошегоДня!


Статистика раздачи
Размер:  412 MB   |    Зарегистрирован:  4 года 9 месяцев   |    .torrent скачан:  28 раз   |   
Раздают:  1  
   
Загрузка...
 
Автор Сообщение

Galfimbul

avatar Galfimbul


Anyone's Daughter - Anyone's Daughter (1980)

Жанр: Symphonic Prog
Страна-производитель диска: Germany
Год издания: 2012
Издатель (лейбл): Tempus Fugit
Номер по каталогу: SPV 80512 CD
Страна: Germany
Аудиокодек: WavPack (*.wv)
Тип рипа: image+.cue
Битрейт аудио: lossless
Продолжительность: 52:24
Источник (релизер): Antikalk (спасибо большое)
Наличие сканов в содержимом раздачи: да
Треклист:
01. Swedish nights [0:04:57.27]
02. Thursday [0:04:03.62]
03. Sundance Of The Haute Provence [0:03:43.63]
04. Moria [0:03:57.12]
05. Enlightment [0:04:50.13]
06. Superman [0:03:59.37]
07. Another Day Like Superman [0:08:07.38]
08. Azimuth [0:01:25.61]
09. Between The Rooms [0:04:29.70]
10. Another Day Like Superman (Live in Frankenbach 1980) [0:04:07.07]
11. Between The Rooms (Live in Baden Baden 1980) [0:04:44.07]
12. Sundance Of The Haute Provence (Live in Baden Baden 1980) [0:03:57.40]
Exact Audio Copy V1.0 beta 1 from 15. November 2010

EAC extraction logfile from 6. December 2012, 17:15

Anyone´s Daughter / Anyone´s Daughter

Used drive : HL-DT-STDVDRAM GH22NS50 Adapter: 0 ID: 1

Read mode : SecureUtilize accurate stream : YesDefeat audio cache : YesMake use of C2 pointers : No

Read offset correction : 667Overread into Lead-In and Lead-Out : NoFill up missing offset samples with silence : YesDelete leading and trailing silent blocks : NoNull samples used in CRC calculations : YesUsed interface : Installed external ASPI interface

Used output format : Benutzerdefinierter KomprimiererSelected bitrate : 1024 kBit/sQuality : HighAdd ID3 tag : NoCommand line compressor : C:\Program Files (x86)\wavpack\wavpack.exeAdditional command line options : -hm -w "Year=%y" -w "Genre=%m" %s %d

TOC of the extracted CD

Track | Start | Length | Start sector | End sector --------------------------------------------------------- 1 | 0:00.00 | 4:57.27 | 0 | 22301 2 | 4:57.27 | 4:03.62 | 22302 | 40588 3 | 9:01.14 | 3:43.63 | 40589 | 57376 4 | 12:45.02 | 3:57.12 | 57377 | 75163 5 | 16:42.14 | 4:50.13 | 75164 | 96926 6 | 21:32.27 | 3:59.37 | 96927 | 114888 7 | 25:31.64 | 8:07.38 | 114889 | 151451 8 | 33:39.27 | 1:25.61 | 151452 | 157887 9 | 35:05.13 | 4:29.70 | 157888 | 178132 10 | 39:35.08 | 4:07.07 | 178133 | 196664 11 | 43:42.15 | 4:44.07 | 196665 | 217971 12 | 48:26.22 | 3:57.40 | 217972 | 235786

Range status and errors

Selected range

Filename M:\A\Anyone's Daughter\Anyone's Daughter\LossLess\Anyone´s Daughter - Anyone´s Daughter.wav

Peak level 97.7 % Extraction speed 0.1 X Range quality 100.0 % Test CRC 97E14AC5 Copy CRC 97E14AC5 Copy OK

No errors occurred

AccurateRip summary

Track 1 not present in databaseTrack 2 not present in databaseTrack 3 not present in databaseTrack 4 not present in databaseTrack 5 not present in databaseTrack 6 not present in databaseTrack 7 not present in databaseTrack 8 not present in databaseTrack 9 not present in databaseTrack 10 not present in databaseTrack 11 not present in databaseTrack 12 not present in database

None of the tracks are present in the AccurateRip database

End of status report

==== Log checksum FB75544182A3C4FA978658A19F5AF0377CCF3D5D3CD5521F59C7E2E2C1B2EA03 ====
REM GENRE "Progressive Rock"REM DATE 1980REM DISCID 9A0C470CREM COMMENT "ExactAudioCopy v1.0b1"PERFORMER "Anyoneґs Daughter"TITLE "Anyoneґs Daughter"FILE "Anyoneґs Daughter - Anyoneґs Daughter.wv" WAVE TRACK 01 AUDIO TITLE "Swedish nights" PERFORMER "Anyoneґs Daughter" INDEX 01 00:00:00 TRACK 02 AUDIO TITLE "Thursday" PERFORMER "Anyoneґs Daughter" INDEX 00 04:55:28 INDEX 01 04:57:27 TRACK 03 AUDIO TITLE "Sundance Of The Haute Provence" PERFORMER "Anyoneґs Daughter" INDEX 00 08:59:15 INDEX 01 09:01:14 TRACK 04 AUDIO TITLE "Moria" PERFORMER "Anyoneґs Daughter" INDEX 00 12:43:03 INDEX 01 12:45:02 TRACK 05 AUDIO TITLE "Enlightment" PERFORMER "Anyoneґs Daughter" INDEX 00 16:40:15 INDEX 01 16:42:14 TRACK 06 AUDIO TITLE "Superman" PERFORMER "Anyoneґs Daughter" INDEX 00 21:30:28 INDEX 01 21:32:27 TRACK 07 AUDIO TITLE "Another Day Like Superman" PERFORMER "Anyoneґs Daughter" INDEX 00 25:29:65 INDEX 01 25:31:64 TRACK 08 AUDIO TITLE "Azimuth" PERFORMER "Anyoneґs Daughter" INDEX 00 33:37:28 INDEX 01 33:39:27 TRACK 09 AUDIO TITLE "Between The Rooms" PERFORMER "Anyoneґs Daughter" INDEX 00 35:03:17 INDEX 01 35:05:13 TRACK 10 AUDIO TITLE "Another Day Like Superman (Live in Frankenbach 1980)" PERFORMER "Anyoneґs Daughter" INDEX 00 39:28:74 INDEX 01 39:35:08 TRACK 11 AUDIO TITLE "Between The Rooms (Live in Baden Baden 1980)" PERFORMER "Anyoneґs Daughter" INDEX 00 43:40:12 INDEX 01 43:42:15 TRACK 12 AUDIO TITLE "Sundance Of The Haute Provence (Live in Baden Baden 1980)" PERFORMER "Anyoneґs Daughter" INDEX 00 48:24:25 INDEX 01 48:26:22
1391070345 554571068 Anyones Daughter - Anyones Daughter.wav

auCDtect: CD records authenticity detector, version 0.8.2Copyright (c) 2004 Oleg Berngardt. All rights reserved.Copyright (c) 2004 Alexander Djourik. All rights reserved.------------------------------------------------------------Processing file: [Anyones Daughter - Anyones Daughter.wav]

------------------------------------------------------------This track looks like CDDA with probability 100%

------------------------------------------------------------Final Conclusion:------------------------------------------------------------These tracks looks like CDDA with probability 100%
- Harald Bareth / bass, lead vocals
- Uwe Karpa / acoustic & electric guitars
- Kono Konopik / drums
- Matthias Ulmer / keyboards, vocals


Трекер:  [ 23-Дек-2012 12:07 ]

  

Скачать .torrent

Размер .torrent файла 18 KB


Размер: 412 MB
Хэш (hash) релиза: b50cf54a8d91096c39ae012a5a8eae39134b2942

Торренты, похожие на Anyones Daughter - Anyones Daughter скачать торрент

Форум Название Автор Размер S L Добавлен
Rосk | Mеtаl | Аltеrnаtivе, Рunk, Indереndеnt (losslеss) ·· (Symphonic Prog) Anyone's Daughter - Danger World (2001) - 2010, FLAC (image+.cue), lossless Polarnik 340240235324 MB 0 0 1379817017

05:30

22-Сен-13

Зарубежный Rock ·· (Symphonic Prog) Anyone's Daughter - In Blau (1982) - 2012, WavPack (image+.cue), lossless Galfimbul 490966889468 MB 0 0 1356253680

12:08

23-Дек-12

Зарубежный Rock ·· (Symphonic Prog) Anyone's Daughter - Neue Sterne (1983) - 2012, WavPack (image+.cue), lossless Galfimbul 508170254485 MB 0 0 1356253620

12:07

23-Дек-12

Rосk | Mеtаl | Аltеrnаtivе, Рunk, Indереndеnt (losslеss) ·· (Symphonic/Progressive rock) Anyone's Daughter - Adonis (1979) - 2010 (remaster), FLAC (image+.cue+scans) lossless Galfimbul 494287372471 MB 0 0 1297859185

15:26

16-Фев-11

Еще никто не оставлял запись к записи скачать торрент Anyones Daughter - Anyones Daughter . Будь первым!

!Обратная связь