Скачать через торрент музыку Anyones Daughter - Neue Sterne бесплатно без регистрации torrent

Если у вас наблюдаются проблемы со скриншотами, переходом по ссылками, скачиванием торрентов - проблемы в блокировщике рекламы AdBlock. #хорошегоДня!


Статистика раздачи
Размер:  485 MB   |    Зарегистрирован:  4 года 7 месяцев   |    .torrent скачан:  37 раз   |   
Раздают:  1  
   
Загрузка...
 
Автор Сообщение

Galfimbul

avatar Galfimbul


Anyone's Daughter - Neue Sterne (1983)

Жанр: Symphonic Prog
Страна-производитель диска: Germany
Год издания: 2012
Издатель (лейбл): Tempus Fugit
Номер по каталогу: SPV 80532 CD
Страна: Germany
Аудиокодек: WavPack (*.wv)
Тип рипа: image+.cue
Битрейт аудио: lossless
Продолжительность: 123
Источник (релизер): Antikalk (спасибо большое)
Наличие сканов в содержимом раздачи: да
Треклист:
01. Der Plan (...und das Eis zerschlagen) [0:03:59.25]
02. Neue Sterne (Des Poppers unglückliche Liebe) [0:04:11.50]
03. In zerbrochenem Glas [0:03:16.25]
04. Wieder weiter [0:04:28.08]
05. Das Puppenspiel [0:04:36.40]
06. Viel zuviel [0:03:58.25]
07. Konsequenzen [0:03:59.62]
08. Illja Illja Lela [0:07:02.25]
09. Café Einstein [0:00:55.38]
10. Reprise [0:05:03.70]
11. Konsequenzen (Live in Heidelberg 1982) [0:05:01.01]
12. Reprise (Live in Eberbach 1983) [0:04:47.11]
13. Viel zu viel (Live in Eberbach 1983) [0:06:25.67]
Exact Audio Copy V1.0 beta 1 from 15. November 2010

EAC extraction logfile from 6. December 2012, 19:24

Anyone`s Daughter / Neue Sterne

Used drive : HL-DT-STDVDRAM GH22NS50 Adapter: 0 ID: 1

Read mode : SecureUtilize accurate stream : YesDefeat audio cache : YesMake use of C2 pointers : No

Read offset correction : 667Overread into Lead-In and Lead-Out : NoFill up missing offset samples with silence : YesDelete leading and trailing silent blocks : NoNull samples used in CRC calculations : YesUsed interface : Installed external ASPI interface

Used output format : Benutzerdefinierter KomprimiererSelected bitrate : 1024 kBit/sQuality : HighAdd ID3 tag : NoCommand line compressor : C:\Program Files (x86)\wavpack\wavpack.exeAdditional command line options : -hm -w "Year=%y" -w "Genre=%m" %s %d

TOC of the extracted CD

Track | Start | Length | Start sector | End sector --------------------------------------------------------- 1 | 0:00.00 | 3:59.25 | 0 | 17949 2 | 3:59.25 | 4:11.50 | 17950 | 36824 3 | 8:11.00 | 3:16.25 | 36825 | 51549 4 | 11:27.25 | 4:28.08 | 51550 | 71657 5 | 15:55.33 | 4:36.40 | 71658 | 92397 6 | 20:31.73 | 3:58.25 | 92398 | 110272 7 | 24:30.23 | 3:59.62 | 110273 | 128259 8 | 28:30.10 | 7:02.25 | 128260 | 159934 9 | 35:32.35 | 0:55.38 | 159935 | 164097 10 | 36:27.73 | 5:03.70 | 164098 | 186892 11 | 41:31.68 | 5:01.01 | 186893 | 209468 12 | 46:32.69 | 4:47.11 | 209469 | 231004 13 | 51:20.05 | 6:25.67 | 231005 | 259946

Range status and errors

Selected range

Filename M:\A\Anyone's Daughter\Neue Sterne\LossLess\Anyone`s Daughter - Neue Sterne.wav

Peak level 97.7 % Extraction speed 0.2 X Range quality 100.0 % Test CRC A760F388 Copy CRC A760F388 Copy OK

No errors occurred

AccurateRip summary

Track 1 not present in databaseTrack 2 not present in databaseTrack 3 not present in databaseTrack 4 not present in databaseTrack 5 not present in databaseTrack 6 not present in databaseTrack 7 not present in databaseTrack 8 not present in databaseTrack 9 not present in databaseTrack 10 not present in databaseTrack 11 not present in databaseTrack 12 not present in databaseTrack 13 not present in database

None of the tracks are present in the AccurateRip database

End of status report

==== Log checksum 234F8CD84F1B7D75842B1180BEFEB3EA82D11E5BB59F9C2B73A337C07BD8DB79 ====
REM GENRE "Progressive Rock"REM DATE 1983REM DISCID BA0D890DREM COMMENT "ExactAudioCopy v1.0b1"PERFORMER "Anyone`s Daughter"TITLE "Neue Sterne"FILE "Anyone`s Daughter - Neue Sterne.wv" WAVE TRACK 01 AUDIO TITLE "Der Plan (...und das Eis zerschlagen)" PERFORMER "Anyone`s Daughter" INDEX 01 00:00:00 TRACK 02 AUDIO TITLE "Neue Sterne (Des Poppers unglьckliche Liebe)" PERFORMER "Anyone`s Daughter" INDEX 00 03:57:25 INDEX 01 03:59:25 TRACK 03 AUDIO TITLE "In zerbrochenem Glas" PERFORMER "Anyone`s Daughter" INDEX 00 08:09:00 INDEX 01 08:11:00 TRACK 04 AUDIO TITLE "Wieder weiter" PERFORMER "Anyone`s Daughter" INDEX 00 11:25:25 INDEX 01 11:27:25 TRACK 05 AUDIO TITLE "Das Puppenspiel" PERFORMER "Anyone`s Daughter" INDEX 00 15:53:35 INDEX 01 15:55:33 TRACK 06 AUDIO TITLE "Viel zuviel" PERFORMER "Anyone`s Daughter" INDEX 00 20:29:74 INDEX 01 20:31:73 TRACK 07 AUDIO TITLE "Konsequenzen" PERFORMER "Anyone`s Daughter" INDEX 00 24:28:24 INDEX 01 24:30:23 TRACK 08 AUDIO TITLE "Illja Illja Lela" PERFORMER "Anyone`s Daughter" INDEX 00 28:28:11 INDEX 01 28:30:10 TRACK 09 AUDIO TITLE "Cafй Einstein" PERFORMER "Anyone`s Daughter" INDEX 00 35:30:36 INDEX 01 35:32:35 TRACK 10 AUDIO TITLE "Reprise" PERFORMER "Anyone`s Daughter" INDEX 00 36:25:74 INDEX 01 36:27:73 TRACK 11 AUDIO TITLE "Konsequenzen (Live in Heidelberg 1982)" PERFORMER "Anyone`s Daughter" INDEX 00 41:29:69 INDEX 01 41:31:68 TRACK 12 AUDIO TITLE "Reprise (Live in Eberbach 1983)" PERFORMER "Anyone`s Daughter" INDEX 00 46:30:70 INDEX 01 46:32:69 TRACK 13 AUDIO TITLE "Viel zu viel (Live in Eberbach 1983)" PERFORMER "Anyone`s Daughter" INDEX 00 51:17:63 INDEX 01 51:20:05
1767011267 611395388 Anyones Daughter - Neue Sterne.wav

auCDtect: CD records authenticity detector, version 0.8.2Copyright (c) 2004 Oleg Berngardt. All rights reserved.Copyright (c) 2004 Alexander Djourik. All rights reserved.------------------------------------------------------------Processing file: [Anyones Daughter - Neue Sterne.wav]

------------------------------------------------------------This track looks like CDDA with probability 100%

------------------------------------------------------------Final Conclusion:------------------------------------------------------------These tracks looks like CDDA with probability 100%
- Harald Bareth / bass, lead vocals
- Uwe Karpa / acoustic & electric guitars
- Peter Schmidt / drums, percussion
- Matthias Ulmer / keyboards, vocals


Трекер:  [ 23-Дек-2012 12:07 ]

  

Скачать .torrent

Размер .torrent файла 20 KB


Размер: 485 MB
Хэш (hash) релиза: 28ee9c3403c1dcc6701d8240e47745bfbc127b34

Еще никто не оставлял запись к записи скачать торрент Anyones Daughter - Neue Sterne . Будь первым!

!Обратная связь