Скачать через торрент музыку The Stargazers - Froffee Coffee - 1997, FLAC бесплатно без регистрации torrent

Если у вас наблюдаются проблемы со скриншотами, переходом по ссылками, скачиванием торрентов - проблемы в блокировщике рекламы AdBlock. #хорошегоДня!


Статистика раздачи
Размер:  228 MB   |    Зарегистрирован:  4 года 9 месяцев   |    .torrent скачан:  26 раз   |   
Раздают:  1  
   
Загрузка...
 
Автор Сообщение

Galfimbul

avatar Galfimbul


The Stargazers / Froffee Coffee

[b]Жанр: Rock'n'Roll
Страна-производитель диска: England
Год издания: 1997
Издатель (лейбл): Vinyl Japan
Номер по каталогу: JRCD27
Страна: England
Аудиокодек: FLAC (*.flac)
Тип рипа: image+.cue
Битрейт аудио: lossless
Продолжительность: 43:22
Источник (релизер): AUDELAS KINGDOM
Наличие сканов в содержимом раздачи: да

[/b] 01. Froffee Coffee
02. Fools Fall In Love
03. Swingin' On A Star
04. Oh Baby Doll
05. County Line
06. Milkcrate Mania
07. What's The Matter With Music Now?
08. Just A Gigolo
09. Willow Weep
10. Where Would We Be Tonight?
11. Mack The Knife
12. A Song About A Train
13. Sugar And Spice
Отчёт EAC об извлечении, выполненном 19. декабря 2012, 6:19

The Stargazers / Froffee Coffee

Дисковод: ATAPI iHAS124 B Adapter: 1 ID: 1

Режим чтения : ДостоверностьИспользование точного потока : ДаОтключение кэша аудио : ДаИспользование указателей C2 : Нет

Коррекция смещения при чтении : 6Способность читать области Lead-in и Lead-out : НетЗаполнение пропущенных сэмплов тишиной : ДаУдаление блоков с тишиной в начале и конце : НетПри вычислениях CRC использовались нулевые сэмплы : ДаИнтерфейс : Встроенный Win32-интерфейс для Win NT/2000

Выходной формат : Пользовательский кодировщикВыбранный битрейт : 1024 kBit/sКачество : ВысокийДобавление ID3-тега : НетУтилита сжатия : C:\Program Files\Exact Audio Copy\FLAC\FLAC.EXEДополнительные параметры : -6 -V -T "ARTIST=%artist%" -T "TITLE=%title%" -T "ALBUM=%albumtitle%" -T "DATE=%year%" -T "TRACKNUMBER=%tracknr%" -T "GENRE=%genre%" -T "COMMENT=%comment%" -T "BAND=%albuminterpret%" -T "COMPOSER=%composer%" %haslyrics%--tag-from-

TOC извлечённого CD

Трек | Старт | Длительность | Начальный сектор | Конечный сектор --------------------------------------------------------------------- 1 | 0:00.33 | 2:18.10 | 33 | 10392 2 | 2:18.43 | 2:27.30 | 10393 | 21447 3 | 4:45.73 | 2:28.32 | 21448 | 32579 4 | 7:14.30 | 2:50.18 | 32580 | 45347 5 | 10:04.48 | 3:24.00 | 45348 | 60647 6 | 13:28.48 | 4:21.25 | 60648 | 80247 7 | 17:49.73 | 2:47.62 | 80248 | 92834 8 | 20:37.60 | 3:21.53 | 92835 | 107962 9 | 23:59.38 | 3:42.17 | 107963 | 124629 10 | 27:41.55 | 2:55.10 | 124630 | 137764 11 | 30:36.65 | 2:29.03 | 137765 | 148942 12 | 33:05.68 | 2:51.37 | 148943 | 161804 13 | 35:57.30 | 2:10.48 | 161805 | 171602

Характеристики диапазона извлечения и сообщения об ошибках

Выбранный диапазон

Имя файла D:\Muzika\The Stargazers - Froffee Coffee (1997)\The Stargazers - Froffee Coffee.wav

Пиковый уровень 99.6 % Скорость извлечения 2.8 X Качество диапазона 100.0 % CRC теста C1B37A1E CRC копии C1B37A1E Копирование... OK

Ошибок не произошло

AccurateRip: сводка

Трек 1 отсутствует в базе данныхТрек 2 отсутствует в базе данныхТрек 3 отсутствует в базе данныхТрек 4 отсутствует в базе данныхТрек 5 отсутствует в базе данныхТрек 6 отсутствует в базе данныхТрек 7 отсутствует в базе данныхТрек 8 отсутствует в базе данныхТрек 9 отсутствует в базе данныхТрек 10 отсутствует в базе данныхТрек 11 отсутствует в базе данныхТрек 12 отсутствует в базе данныхТрек 13 отсутствует в базе данных

Ни одного трека нет в базе AccurateRip

Конец отчёта

==== Контрольная сумма отчёта F955F8897E4490BE79B1B25EE6698EA65B7940CAAE74E788BC5E96BE19622F86 ====


Трекер:  [ 23-Дек-2012 12:07 ]

  

Скачать .torrent

Размер .torrent файла 18 KB


Размер: 228 MB
Хэш (hash) релиза: 4ce84adfa36b22087c9ed401c2d62e27ae4341c0

Еще никто не оставлял запись к записи скачать торрент The Stargazers - Froffee Coffee - 1997, FLAC . Будь первым!

!Обратная связь