Скачать через торрент музыку Madcats - Discography - 1978-1981, FLAC бесплатно без регистрации torrent

Если у вас наблюдаются проблемы со скриншотами, переходом по ссылками, скачиванием торрентов - проблемы в блокировщике рекламы AdBlock. #хорошегоДня!


Статистика раздачи
Размер:  566 MB   |    Зарегистрирован:  4 года 9 месяцев   |    .torrent скачан:  26 раз   |   
Раздают:  1  
   
Загрузка...
 
Автор Сообщение

Galfimbul

avatar Galfimbul


Madcats / Discography

Жанр: Rock
Страна-производитель диска: Canada
Год издания: 1978-1981
Издатель (лейбл): Unidisc Music Inc.
Страна: Canada
Аудиокодек: FLAC (*.flac)
Тип рипа: tracks+.cue
Битрейт аудио: lossless
Продолжительность: 01:20:39
Источник (релизер): CD
Наличие сканов в содержимом раздачи: да
01. Freewheelin' 4:18
02. Woman's Got The Power Over Me 4:04
03. Teenage Valentino 8:13
04. She's Got It 3:53
05. Prisoner Of Your Love 3:45
06. I'm Not A Free Man 5:02
07. We Can Get The Feelin' 3:52
08. Take All The Love 3:38
09. Too Late For Love 3:40
01. Street Game (G. Fullerton) 4:48
02. Call It Quits (B. Blake) 3:17
03. Long Distance Callin′ (G. Fullerton) 3:30
04. Save Me (G. Fullerton) 3:17
05. Young Man′s World (B. MacDonald) 4:22
06. More You Than Me (G. Fullerton) 3:25
07. Brown Baggin′ (G. Fullerton) 3:35
08. Execution (G. Fullerton)4:36
09. I Like It (G. Fullerton) 3:11
10. Summer In The City (J. Sebastian-M. Sebastian-S. Boone) 3:32
11. My Baby (G. Fullerton) 2:41
Exact Audio Copy V1.0 beta 3 from 29. August 2011

Отчёт EAC об извлечении, выполненном 25. сентября 2011, 23:27

Madcats / Madcats

Дисковод: Optiarc DVD RW AD-7260S Adapter: 3 ID: 0

Режим чтения : Достоверность
Использование точного потока : Да
Отключение кэша аудио : Да
Использование указателей C2 : Нет

Коррекция смещения при чтении : 48
Способность читать области Lead-in и Lead-out : Нет
Заполнение пропущенных сэмплов тишиной : Да
Удаление блоков с тишиной в начале и конце : Нет
При вычислениях CRC использовались нулевые сэмплы : Да
Интерфейс : Встроенный Win32-интерфейс для Win NT/2000
Обработка зазоров : Добавлено к предыдущему треку

Выходной формат : Пользовательский кодировщик
Выбранный битрейт : 896 kBit/s
Качество : Высокий
Добавление ID3-тега : Да
Утилита сжатия : C:\Program Files\Exact Audio Copy\Flac\flac.exe
Дополнительные параметры : -V -8 -T "Genre=%genre%" -T "Artist=%artist%" -T "Title=%title%" -T "Album=%albumtitle%" -T "Date=%year%" -T "Tracknumber=%tracknr%" -T "Comment=%comment%" %source%

TOC извлечённого CD

Трек | Старт | Длительность | Начальный сектор | Конечный сектор
---------------------------------------------------------------------
1 | 0:00.00 | 4:18.02 | 0 | 19351
2 | 4:18.02 | 4:04.00 | 19352 | 37651
3 | 8:22.02 | 8:13.48 | 37652 | 74674
4 | 16:35.50 | 3:53.42 | 74675 | 92191
5 | 20:29.17 | 3:45.50 | 92192 | 109116
6 | 24:14.67 | 5:02.25 | 109117 | 131791
7 | 29:17.17 | 3:52.28 | 131792 | 149219
8 | 33:09.45 | 3:38.30 | 149220 | 165599
9 | 36:48.00 | 3:40.30 | 165600 | 182129

Трек 1

Имя файла M:\Раздачи\Madcats\1978 - Madcats\01 Freewheelin'.wav

Длина предзазора 0:00:02.00

Пиковый уровень 78.6 %
Скорость извлечения 2.5 X
Качество трека 100.0 %
CRC теста 4D9344D4
CRC копии 4D9344D4
Точность не определена (достоверность 1) [AB2695B9], AccurateRip вернул [CF23448F] (AR v2)
Копирование... OK

Трек 2

Имя файла M:\Раздачи\Madcats\1978 - Madcats\02 Woman's Got The Power Over Me.wav

Пиковый уровень 98.9 %
Скорость извлечения 2.5 X
Качество трека 99.9 %
CRC теста 7C853EA7
CRC копии 7C853EA7
Точность не определена (достоверность 1) [DD4B9E29], AccurateRip вернул [E05A54C0] (AR v2)
Копирование... OK

Трек 3

Имя файла M:\Раздачи\Madcats\1978 - Madcats\03 Teenage Valentino.wav

Пиковый уровень 88.2 %
Скорость извлечения 3.1 X
Качество трека 99.9 %
CRC теста 6F89EEFC
CRC копии 6F89EEFC
Точность не определена (достоверность 1) [39E1245A], AccurateRip вернул [C087BD44] (AR v2)
Копирование... OK

Трек 4

Имя файла M:\Раздачи\Madcats\1978 - Madcats\04 She's Got It.wav

Пиковый уровень 88.2 %
Скорость извлечения 3.3 X
Качество трека 100.0 %
CRC теста CC8FA29A
CRC копии CC8FA29A
Точность не определена (достоверность 1) [136F0F7A], AccurateRip вернул [CFA2B8B1] (AR v2)
Копирование... OK

Трек 5

Имя файла M:\Раздачи\Madcats\1978 - Madcats\05 Prisoner Of Your Love.wav

Пиковый уровень 98.8 %
Скорость извлечения 3.5 X
Качество трека 100.0 %
CRC теста 73BFA20D
CRC копии 73BFA20D
Точность не определена (достоверность 1) [01975C5A], AccurateRip вернул [8EFDC92A] (AR v2)
Копирование... OK

Трек 6

Имя файла M:\Раздачи\Madcats\1978 - Madcats\06 I'm Not A Free Man.wav

Пиковый уровень 78.7 %
Скорость извлечения 3.8 X
Качество трека 100.0 %
CRC теста E212F357
CRC копии E212F357
Точность не определена (достоверность 1) [813D8395], AccurateRip вернул [6D0205E2] (AR v2)
Копирование... OK

Трек 7

Имя файла M:\Раздачи\Madcats\1978 - Madcats\07 We Can Get The Feelin'.wav

Пиковый уровень 88.1 %
Скорость извлечения 3.4 X
Качество трека 99.9 %
CRC теста 4E272047
CRC копии 4E272047
Точность не определена (достоверность 1) [ACB73C78], AccurateRip вернул [9C258C8B] (AR v2)
Копирование... OK

Трек 8

Имя файла M:\Раздачи\Madcats\1978 - Madcats\08 Take All The Love.wav

Пиковый уровень 78.7 %
Скорость извлечения 4.0 X
Качество трека 100.0 %
CRC теста AAD451F4
CRC копии AAD451F4
Точность не определена (достоверность 1) [FFD86709], AccurateRip вернул [71274E71] (AR v2)
Копирование... OK

Трек 9

Имя файла M:\Раздачи\Madcats\1978 - Madcats\09 Too Late For Love.wav

Пиковый уровень 99.0 %
Скорость извлечения 4.1 X
Качество трека 100.0 %
CRC теста 43E8F75C
CRC копии 43E8F75C
Точность не определена (достоверность 1) [C3F25F2C], AccurateRip вернул [7546B5C7] (AR v2)
Копирование... OK

Ни один трек не прошёл проверки на точность
В вашей базе может быть иной вариант штамповки диска

Ошибок не произошло

Конец отчёта
Exact Audio Copy V1.0 beta 3 from 29. August 2011

Отчёт EAC об извлечении, выполненном 10. сентября 2012, 20:35

Madcats / Streetgame

Дисковод: Optiarc DVD RW AD-7260S Adapter: 3 ID: 0

Режим чтения : Достоверность
Использование точного потока : Да
Отключение кэша аудио : Да
Использование указателей C2 : Нет

Коррекция смещения при чтении : 48
Способность читать области Lead-in и Lead-out : Нет
Заполнение пропущенных сэмплов тишиной : Да
Удаление блоков с тишиной в начале и конце : Нет
При вычислениях CRC использовались нулевые сэмплы : Да
Интерфейс : Встроенный Win32-интерфейс для Win NT/2000
Обработка зазоров : Добавлено к предыдущему треку

Выходной формат : Пользовательский кодировщик
Выбранный битрейт : 896 kBit/s
Качество : Высокий
Добавление ID3-тега : Да
Утилита сжатия : C:\Program Files\Exact Audio Copy\Flac\flac.exe
Дополнительные параметры : -V -8 -T "Genre=%genre%" -T "Artist=%artist%" -T "Title=%title%" -T "Album=%albumtitle%" -T "Date=%year%" -T "Tracknumber=%tracknr%" -T "Comment=%comment%" %source%

TOC извлечённого CD

Трек | Старт | Длительность | Начальный сектор | Конечный сектор
---------------------------------------------------------------------
1 | 0:00.00 | 4:48.27 | 0 | 21626
2 | 4:48.27 | 3:17.18 | 21627 | 36419
3 | 8:05.45 | 3:30.37 | 36420 | 52206
4 | 11:36.07 | 3:17.00 | 52207 | 66981
5 | 14:53.07 | 4:22.30 | 66982 | 86661
6 | 19:15.37 | 3:25.60 | 86662 | 102096
7 | 22:41.22 | 3:35.48 | 102097 | 118269
8 | 26:16.70 | 4:36.12 | 118270 | 138981
9 | 30:53.07 | 3:11.10 | 138982 | 153316
10 | 34:04.17 | 3:32.08 | 153317 | 169224
11 | 37:36.25 | 2:41.62 | 169225 | 181361

Трек 1

Имя файла M:\Раздачи\Madcats\1981 - Streetgame\01 Street Game.wav

Длина предзазора 0:00:02.00

Пиковый уровень 100.0 %
Скорость извлечения 2.6 X
Качество трека 100.0 %
CRC теста EC6F9402
CRC копии EC6F9402
Точность не определена (достоверность 1) [73604FC5], AccurateRip вернул [53B9F72D] (AR v2)
Копирование... OK

Трек 2

Имя файла M:\Раздачи\Madcats\1981 - Streetgame\02 Call It Quits.wav

Пиковый уровень 98.8 %
Скорость извлечения 2.7 X
Качество трека 100.0 %
CRC теста B3344E26
CRC копии B3344E26
Точность не определена (достоверность 1) [DEEF1172], AccurateRip вернул [570607CC] (AR v2)
Копирование... OK

Трек 3

Имя файла M:\Раздачи\Madcats\1981 - Streetgame\03 Long Distance Callin'.wav

Пиковый уровень 88.1 %
Скорость извлечения 2.5 X
Качество трека 99.9 %
CRC теста 39014D27
CRC копии 39014D27
Точность не определена (достоверность 1) [D298BA82], AccurateRip вернул [B7A88D60] (AR v2)
Копирование... OK

Трек 4

Имя файла M:\Раздачи\Madcats\1981 - Streetgame\04 Save Me.wav

Пиковый уровень 98.8 %
Скорость извлечения 3.0 X
Качество трека 100.0 %
CRC теста 52BCC825
CRC копии 52BCC825
Точность не определена (достоверность 1) [2EC3C20A], AccurateRip вернул [42833446] (AR v2)
Копирование... OK

Трек 5

Имя файла M:\Раздачи\Madcats\1981 - Streetgame\05 Young Man's World.wav

Пиковый уровень 96.4 %
Скорость извлечения 3.3 X
Качество трека 100.0 %
CRC теста 9A102923
CRC копии 9A102923
Точность не определена (достоверность 1) [0B776430], AccurateRip вернул [7F1CC4D5] (AR v2)
Копирование... OK

Трек 6

Имя файла M:\Раздачи\Madcats\1981 - Streetgame\06 More You Than Me.wav

Пиковый уровень 88.1 %
Скорость извлечения 3.4 X
Качество трека 100.0 %
CRC теста F3F1D3D6
CRC копии F3F1D3D6
Точность не определена (достоверность 1) [07E85EA7], AccurateRip вернул [E45CE129] (AR v2)
Копирование... OK

Трек 7

Имя файла M:\Раздачи\Madcats\1981 - Streetgame\07 Brown Baggin'.wav

Пиковый уровень 98.8 %
Скорость извлечения 3.6 X
Качество трека 100.0 %
CRC теста E91D2E17
CRC копии E91D2E17
Точность не определена (достоверность 1) [3A182607], AccurateRip вернул [25164A6A] (AR v2)
Копирование... OK

Трек 8

Имя файла M:\Раздачи\Madcats\1981 - Streetgame\08 Execution.wav

Пиковый уровень 98.8 %
Скорость извлечения 3.8 X
Качество трека 100.0 %
CRC теста EF79EFFE
CRC копии EF79EFFE
Точность не определена (достоверность 1) [5ED9D020], AccurateRip вернул [94B34111] (AR v2)
Копирование... OK

Трек 9

Имя файла M:\Раздачи\Madcats\1981 - Streetgame\09 I Like It.wav

Пиковый уровень 79.4 %
Скорость извлечения 3.8 X
Качество трека 100.0 %
CRC теста 9DC173C3
CRC копии 9DC173C3
Точность не определена (достоверность 1) [D5B0E818], AccurateRip вернул [3C4CB842] (AR v2)
Копирование... OK

Трек 10

Имя файла M:\Раздачи\Madcats\1981 - Streetgame\10 Summer In The City.wav

Пиковый уровень 88.1 %
Скорость извлечения 4.0 X
Качество трека 100.0 %
CRC теста BAB69CE7
CRC копии BAB69CE7
Точность не определена (достоверность 1) [59195EAB], AccurateRip вернул [BA4DFCB3] (AR v2)
Копирование... OK

Трек 11

Имя файла M:\Раздачи\Madcats\1981 - Streetgame\11 My Baby.wav

Пиковый уровень 98.8 %
Скорость извлечения 3.9 X
Качество трека 100.0 %
CRC теста 19C6A83A
CRC копии 19C6A83A
Точность не определена (достоверность 1) [B4F4B6F8], AccurateRip вернул [6F0242EA] (AR v2)
Копирование... OK

Ни один трек не прошёл проверки на точность
В вашей базе может быть иной вариант штамповки диска

Ошибок не произошло

Конец отчёта
REM GENRE "Hard Rock, Rock "
REM DATE 1978
REM DISCID 72097C09
REM COMMENT "ExactAudioCopy v1.0b3"
PERFORMER "Madcats"
TITLE "Madcats"
FILE "01 Freewheelin'.wav" WAVE
TRACK 01 AUDIO
TITLE "Freewheelin'"
PERFORMER "Madcats"
INDEX 01 00:00:00
FILE "02 Woman's Got The Power Over Me.wav" WAVE
TRACK 02 AUDIO
TITLE "Woman's Got The Power Over Me"
PERFORMER "Madcats"
INDEX 01 00:00:00
FILE "03 Teenage Valentino.wav" WAVE
TRACK 03 AUDIO
TITLE "Teenage Valentino"
PERFORMER "Madcats"
INDEX 01 00:00:00
FILE "04 She's Got It.wav" WAVE
TRACK 04 AUDIO
TITLE "She's Got It"
PERFORMER "Madcats"
INDEX 01 00:00:00
FILE "05 Prisoner Of Your Love.wav" WAVE
TRACK 05 AUDIO
TITLE "Prisoner Of Your Love"
PERFORMER "Madcats"
INDEX 01 00:00:00
FILE "06 I'm Not A Free Man.wav" WAVE
TRACK 06 AUDIO
TITLE "I'm Not A Free Man"
PERFORMER "Madcats"
INDEX 01 00:00:00
FILE "07 We Can Get The Feelin'.wav" WAVE
TRACK 07 AUDIO
TITLE "We Can Get The Feelin'"
PERFORMER "Madcats"
INDEX 01 00:00:00
FILE "08 Take All The Love.wav" WAVE
TRACK 08 AUDIO
TITLE "Take All The Love"
PERFORMER "Madcats"
INDEX 01 00:00:00
FILE "09 Too Late For Love.wav" WAVE
TRACK 09 AUDIO
TITLE "Too Late For Love"
PERFORMER "Madcats"
INDEX 01 00:00:00
REM GENRE "Hard Rock, Rock"
REM DATE 1981
REM DISCID AD09720B
REM COMMENT "ExactAudioCopy v1.0b3"
PERFORMER "Madcats"
TITLE "Streetgame"
FILE "01 Street Game.wav" WAVE
TRACK 01 AUDIO
TITLE "Street Game"
PERFORMER "Madcats"
INDEX 01 00:00:00
FILE "02 Call It Quits.wav" WAVE
TRACK 02 AUDIO
TITLE "Call It Quits"
PERFORMER "Madcats"
INDEX 01 00:00:00
FILE "03 Long Distance Callin'.wav" WAVE
TRACK 03 AUDIO
TITLE "Long Distance Callin'"
PERFORMER "Madcats"
INDEX 01 00:00:00
FILE "04 Save Me.wav" WAVE
TRACK 04 AUDIO
TITLE "Save Me"
PERFORMER "Madcats"
INDEX 01 00:00:00
FILE "05 Young Man's World.wav" WAVE
TRACK 05 AUDIO
TITLE "Young Man's World"
PERFORMER "Madcats"
INDEX 01 00:00:00
FILE "06 More You Than Me.wav" WAVE
TRACK 06 AUDIO
TITLE "More You Than Me"
PERFORMER "Madcats"
INDEX 01 00:00:00
FILE "07 Brown Baggin'.wav" WAVE
TRACK 07 AUDIO
TITLE "Brown Baggin'"
PERFORMER "Madcats"
INDEX 01 00:00:00
FILE "08 Execution.wav" WAVE
TRACK 08 AUDIO
TITLE "Execution"
PERFORMER "Madcats"
INDEX 01 00:00:00
FILE "09 I Like It.wav" WAVE
TRACK 09 AUDIO
TITLE "I Like It"
PERFORMER "Madcats"
INDEX 01 00:00:00
FILE "10 Summer In The City.wav" WAVE
TRACK 10 AUDIO
TITLE "Summer In The City"
PERFORMER "Madcats"
INDEX 01 00:00:00
FILE "11 My Baby.wav" WAVE
TRACK 11 AUDIO
TITLE "My Baby"
PERFORMER "Madcats"
INDEX 01 00:00:00
-----------------------

DON'T MODIFY THIS FILE

-----------------------

PERFORMER: auCDtect Task Manager, ver. 1.5.1RC6 build 1.5.1.7
Copyright (c) 2008-2010 y-soft. All rights reserved
http://y-soft.org

ANALYZER: auCDtect: CD records authenticity detector, version 0.8.2
Copyright (c) 2004 Oleg Berngardt. All rights reserved.
Copyright (c) 2004 Alexander Djourik. All rights reserved.

FILE: 09 Too Late For Love.flac
Size: 27270241 Hash: 3F906CA5D6C6B1CACB5892B7A5991455 Accuracy: -m0
Conclusion: CDDA 100%
Signature: 64D78C9853CE6FA5E30C8DD6A9B591E7CB9C5586
FILE: 08 Take All The Love.flac
Size: 27698538 Hash: 79993A72D9967449FE6B7618ECA3B21C Accuracy: -m0
Conclusion: CDDA 100%
Signature: 1B752C2BF8A5F0D9D94C34F15E4568BAC8384A80
FILE: 07 We Can Get The Feelin'.flac
Size: 28051881 Hash: CE92CABDB356010C27E2F574BB1942AA Accuracy: -m0
Conclusion: CDDA 100%
Signature: DD29D9B8558F9AD85DF1E981A5E15F022AA092BF
FILE: 06 I'm Not A Free Man.flac
Size: 38343717 Hash: 9513D0C2C80BF3F52D5EDF32AA061491 Accuracy: -m0
Conclusion: CDDA 99%
Signature: 4476DBC0D81675BCDF9BD9FFA5EAFB372080B157
FILE: 05 Prisoner Of Your Love.flac
Size: 27483923 Hash: 6AC8745862128B8C4B1763C144D38937 Accuracy: -m0
Conclusion: CDDA 99%
Signature: 917FAAD354E2F127AE0B65B2E57160F42CC9014C
FILE: 04 She's Got It.flac
Size: 28939493 Hash: 21080113273C3F5FE208EBFDC656D91B Accuracy: -m0
Conclusion: CDDA 100%
Signature: F19C441DB10EB01CADF2E38878E86D706A3E8A93
FILE: 03 Teenage Valentino.flac
Size: 61993324 Hash: 6435DFA72372F169B4D7A1751541047A Accuracy: -m0
Conclusion: CDDA 100%
Signature: 3BA93D53B1CC112A04EBF1FD52CFB89A266C9554
FILE: 02 Woman's Got The Power Over Me.flac
Size: 28105017 Hash: E8A0F8F31AB49D82AAE29014E73B853B Accuracy: -m0
Conclusion: CDDA 100%
Signature: 118A8588C74582A0C086FCF1D43DDDF2B8A90584
FILE: 01 Freewheelin'.flac
Size: 31374762 Hash: CCFEC9C2B373754D42441DA9D3AF7CF1 Accuracy: -m0
Conclusion: CDDA 100%
Signature: 325275BA58FBA24AAFA040AC63E57284871369B6
-----------------------

DON'T MODIFY THIS FILE

-----------------------

PERFORMER: auCDtect Task Manager, ver. 1.5.1RC6 build 1.5.1.7
Copyright (c) 2008-2010 y-soft. All rights reserved
http://y-soft.org

ANALYZER: auCDtect: CD records authenticity detector, version 0.8.2
Copyright (c) 2004 Oleg Berngardt. All rights reserved.
Copyright (c) 2004 Alexander Djourik. All rights reserved.

FILE: 11 My Baby.flac
Size: 19982068 Hash: C320B90F950C099389ABF828AF3EFCE4 Accuracy: -m0
Conclusion: CDDA 100%
Signature: 3E384CB42101C12DD5BDC240697FD485CC55DF7E
FILE: 10 Summer In The City.flac
Size: 24429404 Hash: 27C44A09C19CBF04B13D16008003B990 Accuracy: -m0
Conclusion: CDDA 100%
Signature: B59B95F868C1E11AD655C6AFF7E891EC3FF46DC6
FILE: 09 I Like It.flac
Size: 20726666 Hash: 9D30C0BF140AEE2AA406237539F7361D Accuracy: -m0
Conclusion: CDDA 100%
Signature: FA4D763B3972D787CCA99E1DA9AB4ED1310D2E1D
FILE: 08 Execution.flac
Size: 31294962 Hash: 7973BF49F262AFF0EB30ABD87BAA787E Accuracy: -m0
Conclusion: CDDA 100%
Signature: 91695563CAFE898C69AF7877259EB972DBCF7D1E
FILE: 07 Brown Baggin'.flac
Size: 25168058 Hash: C2E11972E86DD51C3907A0705F0ABD3C Accuracy: -m0
Conclusion: CDDA 100%
Signature: 88061E710E856B17AE2BB6AA4FC97AD47052EFC3
FILE: 06 More You Than Me.flac
Size: 23274106 Hash: 4DB637DAFBE3D71C230593B31D0ABC0D Accuracy: -m0
Conclusion: CDDA 100%
Signature: B9C36AFB30775E3658E5AD6B91B189DE119A9BF2
FILE: 05 Young Man's World.flac
Size: 29830792 Hash: F7D9EBC0F13F323EB15788173997A248 Accuracy: -m0
Conclusion: CDDA 100%
Signature: ECC086BB4FA5802EBA45D0811178B77184B6D832
FILE: 04 Save Me.flac
Size: 23846800 Hash: E6261163D215EB6AA16E7BF53761E18A Accuracy: -m0
Conclusion: CDDA 100%
Signature: 7A46D5CD697CE7F3DCCA6347677F3E06B276D02F
FILE: 03 Long Distance Callin'.flac
Size: 24184889 Hash: 0025861A729D041E8ADDA1F62E41784D Accuracy: -m0
Conclusion: CDDA 100%
Signature: 5B7A3DEBFDDE210521F910F4EC1294EBA35BDF24
FILE: 02 Call It Quits.flac
Size: 21933678 Hash: 1A65BEA18AB7BD5CD703FC969D4BDC45 Accuracy: -m0
Conclusion: CDDA 100%
Signature: F72C8A1FDBFA6BB078131233F4F096F8E9AFD507
FILE: 01 Street Game.flac
Size: 32474925 Hash: 8C44EE257ED86BEFB711189A21D83FB8 Accuracy: -m0
Conclusion: CDDA 100%
Signature: 63D4106E3DD2632E9CB8642EA72D23E64D663FB7
http://www.grant-fullerton.com/index.html
После распада Fullerton Dam в 1977 году, Грант Фуллертон и Брэд Макдональд формируют Madcats.Они приглашают в свой новый проект замечательного вокалиста Бобби Блейка (Mike McKenna Band). Группа подписывает контракт со Skyline Records и выпускают дебютный альбом,в довольно рискованной обложке.
Альбом был переиздан в США в 1979 году с несколько измененным оформлением на лейблах Buddah/Arista,причем существует два варианта с разной последовательностью треков.Альбом к большому сожалению прошел в штатах совершенно незамеченным и контракт был расторгнут.
Второй альбом Mad Cats `Streetgame`,был записан в 1981 году в студии Доменика Тройано.К тому времени в группе поменялся бас гитарист.Затем состоялись короткие гастроли и.....на этом увы все закончилочь.
1978:
Bobby Blake (lead vocals)
Grant Fullerton (guitar, lead vocals)
Brad MacDonald (keyboards, vocals)
John Erdman (bass)
Glen Gratto (drums, vocals)
1981:
Bobby Blake (lead vocals)
Grant Fullerton (guitar, lead vocals)
Brad MacDonald (keyboards, vocals)
Clarence Greer (bass)
Glen Gratto (drums, vocals)


Трекер:  [ 23-Дек-2012 12:07 ]

  

Скачать .torrent

Размер .torrent файла 14 KB


Размер: 566 MB
Хэш (hash) релиза: d6f0da1d28d20c618614200f5991ddfe14811228

Еще никто не оставлял запись к записи скачать торрент Madcats - Discography - 1978-1981, FLAC . Будь первым!

!Обратная связь