Скачать через торрент музыку The Knack - Retrospective - The Best Of The Knack - 1992, APE бесплатно без регистрации torrent

Если у вас наблюдаются проблемы со скриншотами, переходом по ссылками, скачиванием торрентов - проблемы в блокировщике рекламы AdBlock. #хорошегоДня!


Статистика раздачи
Размер:  428 MB   |    Зарегистрирован:  4 года 7 месяцев   |    .torrent скачан:  33 раза   |   
Раздают:  1  
   
Загрузка...
 
Автор Сообщение

Galfimbul

avatar Galfimbul


The Knack / Retrospective - The Best Of The Knack

Жанр: Rock, Power Pop
Страна-производитель диска: Japan
Год издания: 1992
Издатель (лейбл): TOSHIBA EMI
Номер по каталогу: TOCP-50104
Страна: USA
Аудиокодек: APE (*.ape)
Тип рипа: image+.cue
Битрейт аудио: lossless
Продолжительность: 01:03:13
Источник (релизер): Собственный релиз
Наличие сканов в содержимом раздачи: нет
Треклист:
1. My Sharona
2. Your Number Or Your Name
3. One Day At A Time
4. The Hard Way
5. Good Girls Don't
6. (She's So) Selfish
7. Just Wait And See
8. Baby Talks Dirty
9. We Are Waiting
10. I Want Love
11. Africa
12. Can't Put A Price On Love
13. Rocket O'Love (Demo Version)
14. Another Lousy Day In Paradise
15. Sweet Dreams
16. Don't Look Back (Previously Unreleased)
17. Pay The Devil (Ooo, Baby, Ooo)
Exact Audio Copy V0.99 prebeta 5 from 4. May 2009

Отчёт EAC об извлечении, выполненном 8. января 2008, 14:02

The Knack / Retrospective

Дисковод: TSSTcorpCDDVDW TS-L633M Adapter: 1 ID: 0

Режим чтения : ДостоверностьИспользование точного потока : ДаОтключение кэша аудио : ДаИспользование указателей C2 : Нет

Коррекция смещения при чтении : 6Способность читать области Lead-in и Lead-out : НетЗаполнение пропущенных сэмплов тишиной : ДаУдаление блоков с тишиной в начале и конце : НетПри вычислениях CRC использовались нулевые сэмплы : НетИнтерфейс : Встроенный Win32-интерфейс для Win NT/2000

Выходной формат : Внутренние WAV-операцииФормат сэмплов : 44.100 Гц; 16 бит; стерео

TOC извлечённого CD

Трек | Старт | Длительность | Начальный сектор | Конечный сектор --------------------------------------------------------------------- 1 | 0:00.00 | 4:53.45 | 0 | 22019 2 | 4:53.45 | 2:57.07 | 22020 | 35301 3 | 7:50.52 | 4:23.00 | 35302 | 55026 4 | 12:13.52 | 2:13.10 | 55027 | 65011 5 | 14:26.62 | 3:09.23 | 65012 | 79209 6 | 17:36.10 | 4:30.00 | 79210 | 99459 7 | 22:06.10 | 3:01.35 | 99460 | 113069 8 | 25:07.45 | 3:45.72 | 113070 | 130016 9 | 28:53.42 | 4:23.53 | 130017 | 149794 10 | 33:17.20 | 4:04.47 | 149795 | 168141 11 | 37:21.67 | 4:32.70 | 168142 | 188611 12 | 41:54.62 | 4:39.55 | 188612 | 209591 13 | 46:34.42 | 3:09.28 | 209592 | 223794 14 | 49:43.70 | 3:28.55 | 223795 | 239449 15 | 53:12.50 | 3:31.12 | 239450 | 255286 16 | 56:43.62 | 2:21.65 | 255287 | 265926 17 | 59:05.52 | 4:07.68 | 265927 | 284519

Характеристики диапазона извлечения и сообщения об ошибках

Выбранный диапазон

Имя файла C:\Users\Mishany\Documents\The Knack - Retrospective.(Japan)\The Knack - Retrospective.wav

Пиковый уровень 100.0 % Качество диапазона 100.0 % CRC теста BBDF2E2D CRC копии BBDF2E2D Копирование... OK

Ошибок не произошло

AccurateRip: сводка

Трек 1 нет в базе данныхТрек 2 нет в базе данныхТрек 3 нет в базе данныхТрек 4 нет в базе данныхТрек 5 нет в базе данныхТрек 6 нет в базе данныхТрек 7 нет в базе данныхТрек 8 нет в базе данныхТрек 9 нет в базе данныхТрек 10 нет в базе данныхТрек 11 нет в базе данныхТрек 12 нет в базе данныхТрек 13 нет в базе данныхТрек 14 нет в базе данныхТрек 15 нет в базе данныхТрек 16 нет в базе данныхТрек 17 нет в базе данных

Ни одного трека нет в базе AccurateRip

Конец отчёта
REM GENRE RockREM DATE 1992REM DISCID 150ED111REM COMMENT "ExactAudioCopy v0.99pb5"PERFORMER "The Knack"TITLE "Retrospective"FILE "The Knack - Retrospective.ape" WAVE TRACK 01 AUDIO TITLE "My Sharona" PERFORMER "The Knack" INDEX 01 00:00:00 TRACK 02 AUDIO TITLE "Your Number Or Your Name" PERFORMER "The Knack" INDEX 01 04:53:45 TRACK 03 AUDIO TITLE "One Day At A Time" PERFORMER "The Knack" INDEX 00 07:49:30 INDEX 01 07:50:52 TRACK 04 AUDIO TITLE "The Hard Way" PERFORMER "The Knack" INDEX 00 12:12:55 INDEX 01 12:13:52 TRACK 05 AUDIO TITLE "Good Girls Don't" PERFORMER "The Knack" INDEX 01 14:26:62 TRACK 06 AUDIO TITLE "(She's So) Selfish" PERFORMER "The Knack" INDEX 00 17:33:70 INDEX 01 17:36:10 TRACK 07 AUDIO TITLE "Just Wait And See" PERFORMER "The Knack" INDEX 00 22:05:30 INDEX 01 22:06:10 TRACK 08 AUDIO TITLE "Baby Talks Dirty" PERFORMER "The Knack" INDEX 00 25:06:10 INDEX 01 25:07:45 TRACK 09 AUDIO TITLE "We Are Waiting" PERFORMER "The Knack" INDEX 00 28:51:55 INDEX 01 28:53:42 TRACK 10 AUDIO TITLE "I Want Love" PERFORMER "The Knack" INDEX 00 33:15:67 INDEX 01 33:17:20 TRACK 11 AUDIO TITLE "Africa" PERFORMER "The Knack" INDEX 00 37:20:12 INDEX 01 37:21:67 TRACK 12 AUDIO TITLE "Can't Put A Price On Love" PERFORMER "The Knack" INDEX 01 41:54:62 TRACK 13 AUDIO TITLE "Rocket O' Love (Demo Version)" PERFORMER "The Knack" INDEX 01 46:34:42 TRACK 14 AUDIO TITLE "Another Lousy Day In Paradise" PERFORMER "The Knack" INDEX 01 49:43:70 TRACK 15 AUDIO TITLE "Sweet Dreams" PERFORMER "The Knack" INDEX 00 53:12:12 INDEX 01 53:12:50 TRACK 16 AUDIO TITLE "Don't Look Back" PERFORMER "The Knack" INDEX 00 56:42:32 INDEX 01 56:43:62 TRACK 17 AUDIO TITLE "Pay The Devil (Ooo, Baby, Ooo)" PERFORMER "The Knack" INDEX 00 59:03:22 INDEX 01 59:05:52


Трекер:  [ 23-Дек-2012 12:06 ]

  

Скачать .torrent

Размер .torrent файла 17 KB


Размер: 428 MB
Хэш (hash) релиза: 1f21b45dc72f0ba0d4c1f5034ee2c417affc3f0d

Еще никто не оставлял запись к записи скачать торрент The Knack - Retrospective - The Best Of The Knack - 1992, APE . Будь первым!

!Обратная связь