Скачать через торрент музыку Fatal Smile - 21st Century Freaks - 2012, бесплатно без регистрации torrent

Если у вас наблюдаются проблемы со скриншотами, переходом по ссылками, скачиванием торрентов - проблемы в блокировщике рекламы AdBlock. #хорошегоДня!


Статистика раздачи
Размер:  365 MB   |    Зарегистрирован:  4 года 7 месяцев   |    .torrent скачан:  45 раз   |   
Раздают:  1  
   
Загрузка...
 
Автор Сообщение

Galfimbul

avatar Galfimbul


Fatal Smile
21st Century Freaks

Жанр: Hard Rock/Glam/Melodic Metal
Год издания: 2012
Издатель (лейбл): GMR Music
Страна: Sweden
Аудиокодек: FLAC (*.flac)
Тип рипа: tracks+.cue
Битрейт аудио: lossless
Продолжительность: 00:49:16
Источник (релизер): [What.CD] Marino13
Наличие сканов в содержимом раздачи: нет

Треклист:
01. Welcome To The Freakshow 04:32
02. Nailed To The Wall 04:03
03. Raisning Hell In Heaven 04:15
04. Judgement Day 04:51
05. Broken Heart 04:04
06. My Private Hell 04:22
07. Scarecrow 05:23
08. Innocent 03:56
09. Break This Chains 05:12
10. Take It To The Limit 04:02
11. For The Last In Line 04:33

Состав:
Blade - Vocals
Mr. Y - Guitars
Alx - Bass
Philty - Drums
Exact Audio Copy V1.0 beta 3 from 29. August 2011

EAC extraction logfile from 20. December 2012, 14:25

Fatal Smile / 21st Century Freaks

Used drive : TSSTcorpCDDVDW SH-S223Q Adapter: 6 ID: 0

Read mode : SecureUtilize accurate stream : YesDefeat audio cache : YesMake use of C2 pointers : No

Read offset correction : 6Overread into Lead-In and Lead-Out : NoFill up missing offset samples with silence : YesDelete leading and trailing silent blocks : NoNull samples used in CRC calculations : YesUsed interface : Native Win32 interface for Win NT & 2000Gap handling : Appended to previous track

Used output format : User Defined EncoderSelected bitrate : 128 kBit/sQuality : HighAdd ID3 tag : NoCommand line compressor : C:\Program Files (x86)\Exact Audio Copy\Flac\flac.exeAdditional command line options : --best --picture="C:\FLAC\folder.jpg" -P 4096 -V -T "ARTIST=%artist%" -T "TITLE=%title%" -T "ALBUM=%albumtitle%" -T "TRACKNUMBER=%tracknr%" %source% -o %dest%

TOC of the extracted CD

Track | Start | Length | Start sector | End sector --------------------------------------------------------- 1 | 0:00.00 | 4:32.37 | 0 | 20436 2 | 4:32.37 | 4:03.04 | 20437 | 38665 3 | 8:35.41 | 4:15.24 | 38666 | 57814 4 | 12:50.65 | 4:51.01 | 57815 | 79640 5 | 17:41.66 | 4:04.47 | 79641 | 97987 6 | 21:46.38 | 4:22.35 | 97988 | 117672 7 | 26:08.73 | 5:23.32 | 117673 | 141929 8 | 31:32.30 | 3:56.40 | 141930 | 159669 9 | 35:28.70 | 5:12.10 | 159670 | 183079 10 | 40:41.05 | 4:02.11 | 183080 | 201240 11 | 44:43.16 | 4:33.18 | 201241 | 221733

Track 1

Filename C:\FLAC\Fatal Smile\21st Century Freaks\01 - Welcome To The Freakshow.wav

Pre-gap length 0:00:02.00

Peak level 96.2 % Extraction speed 4.5 X Track quality 100.0 % Test CRC B9C233F9 Copy CRC B9C233F9 Track not present in AccurateRip database Copy OK

Track 2

Filename C:\FLAC\Fatal Smile\21st Century Freaks\02 - Nailed To The Wall.wav

Peak level 96.3 % Extraction speed 4.9 X Track quality 100.0 % Test CRC 63CF9993 Copy CRC 63CF9993 Track not present in AccurateRip database Copy OK

Track 3

Filename C:\FLAC\Fatal Smile\21st Century Freaks\03 - Raising Hell In Heaven.wav

Peak level 100.0 % Extraction speed 4.4 X Track quality 99.9 % Test CRC 4BA64F76 Copy CRC 4BA64F76 Track not present in AccurateRip database Copy OK

Track 4

Filename C:\FLAC\Fatal Smile\21st Century Freaks\04 - Judgement Day.wav

Peak level 96.2 % Extraction speed 6.0 X Track quality 100.0 % Test CRC 0C6DF1FA Copy CRC 0C6DF1FA Track not present in AccurateRip database Copy OK

Track 5

Filename C:\FLAC\Fatal Smile\21st Century Freaks\05 - Broken Heart.wav

Peak level 96.2 % Extraction speed 6.3 X Track quality 100.0 % Test CRC 8DF3ABAC Copy CRC 8DF3ABAC Track not present in AccurateRip database Copy OK

Track 6

Filename C:\FLAC\Fatal Smile\21st Century Freaks\06 - My Private Hell.wav

Peak level 96.2 % Extraction speed 6.7 X Track quality 100.0 % Test CRC 2DBDCB76 Copy CRC 2DBDCB76 Track not present in AccurateRip database Copy OK

Track 7

Filename C:\FLAC\Fatal Smile\21st Century Freaks\07 - Scarecrow.wav

Peak level 94.1 % Extraction speed 7.3 X Track quality 100.0 % Test CRC 31F6CE81 Copy CRC 31F6CE81 Track not present in AccurateRip database Copy OK

Track 8

Filename C:\FLAC\Fatal Smile\21st Century Freaks\08 - Innocent.wav

Peak level 97.4 % Extraction speed 7.3 X Track quality 100.0 % Test CRC 5B889A5B Copy CRC 5B889A5B Track not present in AccurateRip database Copy OK

Track 9

Filename C:\FLAC\Fatal Smile\21st Century Freaks\09 - Break These Chains.wav

Peak level 96.3 % Extraction speed 7.9 X Track quality 100.0 % Test CRC 26936752 Copy CRC 26936752 Track not present in AccurateRip database Copy OK

Track 10

Filename C:\FLAC\Fatal Smile\21st Century Freaks\10 - Take It To The Limit.wav

Peak level 96.3 % Extraction speed 7.9 X Track quality 100.0 % Test CRC 333B38F0 Copy CRC 333B38F0 Track not present in AccurateRip database Copy OK

Track 11

Filename C:\FLAC\Fatal Smile\21st Century Freaks\11 - For The Last In Line.wav

Peak level 98.8 % Extraction speed 6.8 X Track quality 99.9 % Test CRC A43E902A Copy CRC A43E902A Track not present in AccurateRip database Copy OK

None of the tracks are present in the AccurateRip database

No errors occurred

End of status report

==== Log checksum 8E404D78C67E6BE5710AA2AD4C09DF9DE45EC6079563FAB6773ACD74CCDD4B52 ====
REM DISCID 8D0B8C0BREM COMMENT "ExactAudioCopy v1.0b3"PERFORMER "Fatal Smile"TITLE "21st Century Freaks"FILE "Fatal Smile\21st Century Freaks\01 - Welcome To The Freakshow.wav" WAVE TRACK 01 AUDIO TITLE "Welcome To The Freakshow" PERFORMER "Fatal Smile" ISRC SEYZ=1200101 INDEX 01 00:00:00FILE "Fatal Smile\21st Century Freaks\02 - Nailed To The Wall.wav" WAVE TRACK 02 AUDIO TITLE "Nailed To The Wall" PERFORMER "Fatal Smile" ISRC SEYZ=1200202 INDEX 01 00:00:00FILE "Fatal Smile\21st Century Freaks\03 - Raising Hell In Heaven.wav" WAVE TRACK 03 AUDIO TITLE "Raising Hell In Heaven" PERFORMER "Fatal Smile" ISRC SEYZ=1200203 INDEX 01 00:00:00FILE "Fatal Smile\21st Century Freaks\04 - Judgement Day.wav" WAVE TRACK 04 AUDIO TITLE "Judgement Day" PERFORMER "Fatal Smile" ISRC SEYZ=1200102 INDEX 01 00:00:00FILE "Fatal Smile\21st Century Freaks\05 - Broken Heart.wav" WAVE TRACK 05 AUDIO TITLE "Broken Heart" PERFORMER "Fatal Smile" ISRC SEYZ=1200205 INDEX 01 00:00:00FILE "Fatal Smile\21st Century Freaks\06 - My Private Hell.wav" WAVE TRACK 06 AUDIO TITLE "My Private Hell" PERFORMER "Fatal Smile" ISRC SEYZ=1200206 INDEX 01 00:00:00FILE "Fatal Smile\21st Century Freaks\07 - Scarecrow.wav" WAVE TRACK 07 AUDIO TITLE "Scarecrow" PERFORMER "Fatal Smile" ISRC SEYZ=1200207 INDEX 01 00:00:00FILE "Fatal Smile\21st Century Freaks\08 - Innocent.wav" WAVE TRACK 08 AUDIO TITLE "Innocent" PERFORMER "Fatal Smile" ISRC SEYZ=1200208 INDEX 01 00:00:00FILE "Fatal Smile\21st Century Freaks\09 - Break These Chains.wav" WAVE TRACK 09 AUDIO TITLE "Break These Chains" PERFORMER "Fatal Smile" ISRC SEYZ=1200209 INDEX 01 00:00:00FILE "Fatal Smile\21st Century Freaks\10 - Take It To The Limit.wav" WAVE TRACK 10 AUDIO TITLE "Take It To The Limit" PERFORMER "Fatal Smile" ISRC SEYZ=1200209 INDEX 01 00:00:00FILE "Fatal Smile\21st Century Freaks\11 - For The Last In Line.wav" WAVE TRACK 11 AUDIO TITLE "For The Last In Line" PERFORMER "Fatal Smile" ISRC SEYZ=1200211 INDEX 01 00:00:00

Доп. информация: Encyclopaedia Metallum


Трекер:  [ 23-Дек-2012 12:06 ]

  

Скачать .torrent

Размер .torrent файла 15 KB


Размер: 365 MB
Хэш (hash) релиза: 1d39c446c6256714ada5b5d2198beadb6140c344

Торренты, похожие на Fatal Smile - 21st Century Freaks - 2012, скачать торрент

Форум Название Автор Размер S L Добавлен
Зарубежный Rock ·· (Glam Metal) Fatal Smile - 21st Century Freaks - 2012, (image+.cue), lossless Galfimbul 407292897388 MB 0 0 1359985560

16:46

4-Фев-13

Rосk | Mеtаl | Аltеrnаtivе, Рunk, Indереndеnt (mр3) ·· (Hard Rock/Metal) Fatal Smile - 21st Century Freaks - 2012, MP3, 320 kbps Galfimbul 118943119113 MB 0 0 1337426940

14:29

19-Май-12

Еще никто не оставлял запись к записи скачать торрент Fatal Smile - 21st Century Freaks - 2012, . Будь первым!

!Обратная связь